| アーティスト |
Sampling Masters MEGA |
BASIC
ADVANCED
EXPERT
MASTER
(220)
{8}2q6[8:1],,7,8<4[8:1],,2,{4}1-7q3[2:1],,,5,5,{8}7p3[8:1],,2,1>5[8:1],,7,{4}8-2p6[2:1],,,4,4,
{8}2q6[8:1],,7,8<4[8:1],,2,{4}1-7q3[2:1],,,5,5,{8}7p3[8:1],,2,1>5[8:1],,7,{1}8h[1:1],{4}5^3[8:1],
5/6-8[8:1],6/4-1[8:1],4/5<3[4:1],5,,{8}3x/5x,3x/5x,,26,{4}2-8[8:1]/6,4^6[8:1],
4/3-1[8:1],3/5-8[8:1],5/4>6[4:1],4,,{8}6x/4x,6x/4x,,73,7h[4:1]/3,4,{4}5^3[8:1],
5/6-8[8:1],6/4-1[8:1],4/5<3[4:1],5,,{8}3x/5x,3x/5x,,26,{4}2-8[8:1]/6,4^6[8:1],
4/3-1[8:1],3/5-8[8:1],54,4,{8}5h[4:1]/7h[4:1],,,2h[4:1]/4h[4:1],,,{1}6h[1:1]/8h[4:5],{4},5,5,{8}4,4,5,5,
E4,,,1,1/B4,,8,,B5,1,,1,E6,,,8x,E4,,,1,1/B4,,,8,B5,7,,6,{2}E6,
{8}E4,,,1,{2}1/B4,{8}B5,8,,8,{2}E6,{8}56,56,,,34,34,,,35,35,,46,4^1[8:1]/6,,5,,
5,7,E4f,2,5,E7f,8,4,E3,5,7,E4,2,1,E5,7,E4f,2,5,E7f,8,8,7,6,54,3,2,1,
5,7,E4f,2,5,E7f,8,4,E3,5,7,E4,2,1,E5,7,4,E3,5,7,8,1x/8x,{4}1x/8x,2x/4x,4x/5x,{8}5x/7x,
4,E3f,5,7,E5f,2,1,5,E7,4,2,E5,7,8,E4,2,5,E7,4,2,1,1,2,3,45,6,7,8,
4,E3f,5,7,E5f,2,1bh[8:1],5,E7,4,2,E5,7,8,E4f,2,5,E7f,4,2h[4:1]/6h[4:1],,,3h[2:1]/7h[2:1],,{2},
{8}2-5[8:1],,5,6-1[8:1],,1,2-5[8:1],,5,6-3[8:1],,1,2-5[8:1]*-7[8:1],,2,,6,6,57,57,8,1,28,28,3,3,24,,46,,
7-4[8:1],,4,3-8[8:1],,8,7-4[8:1],,4,3-6[8:1],,8,7-4[8:1]*-2[8:1],,7,,3,3,42,42,1,8,71,71,6,6,75,,18,,
2pp4[8:1],,5,6^1[8:1],,1,2v5[8:1],,5,6^4[8:1],,1,2-5[8:1]*^8[8:1],,2,,6,6,57,57,8,1,28,28,3,3,24,,46,,
7qq5[8:1],,4,3^8[8:1],,8,7v4[8:1],,4,3^5[8:1],,8,7-4[8:1]*^1[8:1],,7,,3,3,42,42,1,8,71,71,6,6,75,,24,,
3>6<3[8:11]/5h[4:1],,,4h[4:1],,,5h[4:1],,,4h[4:1],,,E5f,,E6f,,
6<3>6[8:11]/4h[4:1],,,5h[4:1],,,4h[4:1],,,5h[4:1],,,4,4,5,,
3V17^6V82^3[8:11]/5h[4:1],,,4h[4:1],,,5h[4:1],,,4h[4:1],,,E5f,,E6f,,
6V82^3V17^6[8:11]/4h[4:1],,,5h[4:1],,,4h[4:1],,,5h[4:1],,,4,,4,,
5h[8:1]/8h[4:1],,,4h[8:1],{2}8h[4:1],3-6p1[2:1]/8h[4:1],8h[4:1],
{8}4h[8:1]/8h[4:1],,,5h[8:1],{2}8h[4:1],3-6p1[2:1]/8h[4:1],8h[4:1],
{8}4h[8:1]/8,8,,2h[8:1]/6,6,,8h[8:1]/4,4,,6h[8:1]/2,2,,1,1,1,1,
{5}1h[5:1],3h[5:1],5h[5:1],7h[5:1],1h[5:1],3h[5:1],5h[5:1],7h[5:1],1h[5:1],3bh[20:19],{1}5bh[4:3],
{8}2-5[8:1],,7,8-4[8:1],,4,3-1[8:1]*-5[8:1],,3,,7,7^2[8:1],,4,5-1[8:1],,58,,
7-4[8:1],,2,1-5[8:1],,5,6-8[8:1]*-4[8:1],,6,,2,2,,46,{16}3,5,3,5,4,6,4,6,
{8}3-6[8:1],,7,8-4[8:1],,4,3-1[8:1]*-5[8:1],,3,,7,7^2[8:1],,4,5-1[8:1],,58,,
7-4[8:1],,2,1-5[8:1],,6,7-2[8:1],,3^6[8:1],,8,7^2[8:1],,4,3-6[8:1],,7-2[8:1],,3,4^1[8:1],,5,5,6b,
7-4[8:1],,2,1-5[8:1],,5,6-8[8:1]*-4[8:1],,6,,2,2^7[8:1],,5,4-8[8:1],,41,,
2-5[8:1],,7,8-4[8:1],,4,3-1[8:1]*-5[8:1],,3,,7,7,,53,{16}6,4,6,4,5,3,5,3,
{8}6-3[8:1],,2,1-5[8:1],,5,6-8[8:1]*-4[8:1],,6,,2,2^7[8:1],,5,4-8[8:1],,41,,
2-5[8:1],,7,8-4[8:1],,3,2-7[8:1],,6^3[8:1],,1,2^7[8:1],,6,5h[4:5],,{1},{4}4,5,{8}4,4,5,5,
4,2,E5f,7,4,E2f,8,5,E8,4,2,E6,7,1,E4,2,E6f,7,4,E3f,1,1,2,3,45,6,7,8,
4,2,E5f,7,4,E2f,8,5,E7,4,2,E5,7,1,E4,2,E6f,7,4,E3f,8,8x/1x,{4}8x/1x,7x/5x,5x/4x,{8}4x/2x,
5,E8f,4,2,E5f,7,1,4,E2,5,7,E5,2,8,E6,E8f,4,2,E5f,7,8,8,7,6,54,3,2,1,
5,E7f,4,2,E5f,7,1,4,E2,5,7,E4,2,8,E5,E7f,4,2,E6f,7,{2}1b,{16}4,5,{8}4,4,4,4,
5,7,E3f,1,4,E7f,8,4,E2,6,8,E5,3,1,E6,7,E3f,1,4,E7f,8,8,7,6,54,3,2,1,
1^4[8:1],,6,8^5[8:1],,3,1-5[8:1],,8^5[8:1],,3,1^4[8:1],,6,8,,
{5}8h[5:1],6h[5:1],4h[5:1],2h[5:1],8bh[20:9],{6}6bh[4:1],,1x/3x,1x/3x,,4b/5b,
{8}4b/5b,2,5/E3f,7,4,2/E5f,{16}6,7,{8}8,67,67,67,67,6-1[8:1]/7-3[8:1],67,{1}6b/7b,,,,E
Re:MASTER
- 追加しました。修正等ありましたらよろしくお願いします。 -- けもがみ (2025-10-03 21:45:45)
最終更新:2026年04月11日 18:57