アットウィキロゴ

るろうらんる

アーティスト ちから

BPM BASIC ADVANCED EXPERT MASTER Re:MASTER
156 4 7+ 11+ 14 -

EXPERT MASTER Re:MASTER
譜面制作者 はっぴー るしえる -

BASIC


ADVANCED


EXPERT

(156){4},,,1bx-6-2-5[4:3]b,,,,{8},7,7,5,6,3,3,4,2,7,7,8,6,4,4,5,3,4,2,2,4,3,6,6,4>1[8:1],,8<5[8:1],,,,,3/4,3/4,2,2,4,3,6,6,5,7,2,2,1,3,5,5,4,6,5,7,7,5,6,2,2,4,4,1,
1>4[8:1],,8,8<5[8:1],,{4},,{8}3,2/4,{16},2/4,,3-5[8:1],{8},,,,6,7/5,{16},7/5,,6<1[8:1],{8},,,,3/4,2/4,{16},2/4,,3/4-8[8:1],{8},,,,6/5,7/5,{16},7/5,,6<1[8:1]/5>2[8:1],{2},{8}3/4,2,{16},2,,4-7[8:1]/3,{2},{8}6/5,7,{16},7,,5-2[8:1]/6,{2},{8}3/4,1,{16},1,,4-8[8:1]/3,{2},{8}1,2,3,4,5bh[8:1]/6bh[8:1],,3bh[8:1]/4bh[8:1],,

{8}5,6,7,8,8,7,6,6,5h[8:1]/7h[8:1],,6,6,5h[8:1]/7h[8:1],,6,4,4,3,2,2,1h[8:1]/2h[8:1],,3h[8:1]/4h[8:1],,4,3,2,1,5,4,3,2,
E3,E4,E5,E6,E7,E8,E1,E2,{4}3h[4:1],1h[4:1],8h[4:1],6h[4:1],4>1[4:1],,8<5[4:1],,{8}3,3,8,8,5,5,7,7<4[8:1],,,,

{8}2,2,4,3,6,6,5,7,2,2,1,3,5,5,4,6,5,7,7,5,6,3,3,5<8[8:1],,1>4[8:1],,,,,5,6,7,7,5,6,3,3,4,2,7,7,8,6,4,4,5,3,4,2,2,4,3,7,7,5,5,8<5[8:1],,
1>4[8:1],,,6,6h[4:1],,5,,7/8,,1,2,3/4,,3/4,,1/2,,8,7,5/6,,7,7,5,5,8,8,1,1,4,5,4,3,5,6,6,2,2,4,3,6,6,5,7,2,2,1,3,5,5,4,6,5,7,7,5,6,3,3,5-8[8:1],,1-4[8:1],,,,,,,8x,8hx[4:1],,

{12}1b,,2,,3/4,,5,,5/6,,7,,1/8b,,7,,5/6,,4,,3/4,,2,,1b/8,,2,,3/4,,5,,5/6,,7,,8b/1,,7,,5/6,,4,,3/5,,3/5,,2bh[4:1],,4,4,,1/2,1/2,,7/8,,5/6,,
7bh[4:1],,5,5,,8/7,8/7,,2/1,,4/3,,2bh[4:1],,4,4,,1/2,1/2,,7/8,,5/6,,7bh[4:1],,5,5,,8/7,8/7,,2/1,,4/3,,{8}5h[4:1]/6h[4:1],,,4/7,4h[8:1]/7h[8:1],,5h[8:1]/2h[8:1],,1,1,8,8,1h[8:1]/2h[8:1],,8h[8:1]/7h[8:1],,6,5,4,3,2h[8:1]/4h[8:1],,7h[8:1]/5h[8:1],,
3/4,2,1/8,7,6h[8:1]/8h[8:1],,3h[8:1]/1h[8:1],,4,4,5,5,3h[4:1],,1,1,1h[4:1],,8,8,8h[4:1],,6,6,6h[4:1],,4,3,3h[4:1],,4,5,6h[4:1],,5,4,4,4/5,4/5,{16}3,4,3,,6,5,

{4}6,7h[2:1],,1,1,2h[2:1],,8<5[4:1],3,1>4[4:1],6,8<5[4:1],3,1>4[4:1],6,{8}7x,7x,5x,5x,6,7,8,1,2,3,4,4,E4,E3,E2,E1,E8,E7,E6,E5,3<6[4:1],3,6,,7-4[4:1],7,3,,3,2,1/8,7,4/6,4/6,3/7,,2-5[8:1]/8-5[8:1],2/8,,,7-4[8:1]/1-4[8:1],7/1,,,6,7,8,1,2,3,4/5,,5/6-1[8:1],5/6,,,4/3-8[8:1],4/3,,,5/6-1[8:1],5/6,,,3/4,3/4,3b/4b,2,2,4,3,7,7,5,6,1,1,8,5,6,6,4,4,8,8,1,4,3,3,{16}5,4,{4}5,{8}3h[16:3]/4h[16:3],,,2h[16:3]/1h[16:3],,,7h[16:3]/8h[16:3],,,6h[16:3]/5h[16:3],,,{16}6,,6,5,,,3,,3,4,,,6,,6,8,,,3,,3,1,,1h[16:13],{4},,,7b-3[4:1],E

MASTER

(156)
{4},,,1x/8x,{6}2/E6f,7/B4f,3/E8f,6/E5f,2/Cf,{24},{8}8x-6[8:1],
2-4[8:1],8,2,5,34,2h[4:1],{16}1,8,7,6,{8}53,7,46,3,{16}2-5[8:1],1,2,1,2,,8,,
47,,6,5,7,,82,,17,,3,4,2,,1/7h[8:1],,8,1,2,3,{32}8,1,2,3,4,5,{8}6v8[16:3]b/2,6/2-5[8:1],,,{16},
7,7,5,6,3,3,4,2,8b,,3^6[8:1]b,1,2,1,3,,7,7,8,,56,,34,,2,1,3-7[8:1],8,{8}4,3,
5,68,18,{16}3,1,2,,6,8,7,,18,,3,4,,52,,,6,5,,47,,1-5[8:1]/8-4[8:1],{2},

{16}7,5,7,,7,5,7,5,7,,7,5,7,,7,,7,6,7,,7,6,7,6,7,,7,6,7,,7,,
7,8,7,,7,8,7,8,7,,7,8,7,,7,,7,6,7,,7,6,7,6,7,,7,6,7,,45,,
3x,4,3x,,3,4,3x,4,3x,,3,4,3x,,3x,,3x,2,3x,,3,2,3x,2,3x,,3,2,3x,,3x,,
3x,1,3x,,3,1,3x,1,3x,,3,1,3x,,1x/3x,,2,2,2,,13,1h[8:1]/3h[8:1],,,4x/8x,57,6,,7x,68,15,,

{8}3,3h[4:1],1,1h[4:1],8,8h[4:1],6,6h[2:1],8,7,5,4h[2:1],1,8,7,6,
5h[8:1],6h[8:1],7h[8:1],8h[8:1],1h[8:1],2h[8:1],3h[8:1],4h[4:1],
1,3h[4:1],1,5h[4:1],8,6h[8:1],8,17,{16}2,8,2,8,3,7,3,7,4,6,{8}4,3^8[8:1]/7^4[8:1],48,
{4}3-7[8:1]/7,3/1-5[8:1],16,{16}4>6[8:3]/8bx,48,,,{2}4/B2/B3/E3f,{8}4h[8:3],,3,3,
3h[16:1]/4h[16:1],3h[16:1]/4h[16:1],3h[16:1]/4h[16:1],2h[16:1]/5h[16:1],
1-7[8:1]/6h[16:1],7h[16:1],{2}1-5v4^3[8:3]/8h[2:1],{8},8x,

8x,6,3,24,7qq6[16:3],68,{16}8,1,2,3,{8}4bx,56,78,12,{16}3,4,2,5,1-5[8:1],,28,,
1^6[8:1],,7,7,1^4[8:1],,4,4,1,,8,8,3,,2h[8:1],,1,8,7,6,{32}1,8,7,6,5,4,{8}3/7v8[16:3]b,3-5[8:1]/7,,,{16},
7,7,5,6,3,3,4,2,8b,,3^6[8:1]b,1,2,1,3,,7,7,{8}5,6,5qq1[8:3]/7,6h[16:1],6h[16:1],7h[16:1],7h[16:1],
7^2[8:1],6,3-8[8:1],4,5,6,71,7h[4:1]/1,{16}8,1,2,3,{32}8,1,2,3,4,5,{16}6/2v3[16:3]b,,6pp8[16:3]/2,{8},,,

2h[8:1],8b,5/7h[8:1],1b,2v5[8:1]/8v5[8:1],37,2b/8b,,{16}4qq4[4:1],6,5,6,{8}4pp4[4:1],7,7,8,8-4[8:1],,
2h[16:1]/8-6[8:1],2h[16:1],1h[16:1]/8-4[8:1],1h[16:1],2h[16:1]/8-3[8:1],2h[16:1],18,1,
14,{16}2,4,3,6,5,7,3-6[8:1],,2,1,3,,8,8,{8}1-3[8:1],7-5[8:1]/8,1,7,2pp3[16:3],13,{16}1,8,7,6,
{8}5bx,34,12,78,{16}5x,6,4,5,3,,26,,3-5[8:1]/8,,2,1,3,,8,,7-1[8:1],,6,5,7,,2h[8:1],,
1,8,7,6,{32}1,8,7,6,5,4,{8}37,3h[16:7]/7h[16:5],{16},{2},

(234)
{4}5h[8:1]/7V16-2V48[2:5],5h[8:1],5h[8:1],5h[8:1],5h[8:1],5h[8:1],
5h[8:1],5h[8:1],5h[8:1],5h[8:1],5h[8:1],5,
7h[8:1]/5-1-4V63-8[2:5],7h[8:1],7h[8:1],7h[8:1],7h[8:1],7h[8:1],
7h[8:1],7h[8:1],7h[8:1],7h[8:1],7h[8:1],7,
1h[8:1]/6V47-3V58[2:5],1h[8:1],1h[8:1],1h[8:1],1h[8:1],1h[8:1],
2h[8:1],2h[8:1],2h[8:1],2h[8:1],2h[8:1],2,
4h[8:1]/1V38-5v7-2[2:5],4h[8:1],4h[8:1],4h[8:1],4h[8:1],4h[8:1],
3h[8:1],3h[8:1],3h[8:1],3h[8:1],3h[8:1],3,

(156)
{4}1h[4:1]/4h[4:1],{8},38,
16,78,{16}56,5/6h[16:5],,D5,D4,D3,D2,D1,D8,,6,6,5,,7,7,8^3^8[4:1],,{2}1/6h[8:3],{16}7,
7,8,,6,6,5,,4/6h[8:3],,A3,E3,E2,A1,E1,E8,6,6,5,,8,8,5V31V35[8:3],,4/7h[8:3],,{2},
{16}8,7,6,5,4,3,2,1,8x/6x,5,4,3,2,1,8,7,64,3,2,1,8,7,6,5,4x/2x,1,8,7,6,5,4,3,
{4}2x/6x<2[4:1],{16}62,3,4,5h[16:5],{8},1,1,37,{16}1,1,8,2,2,7,1,8,8,1,7,7,{4}1b,

{2}2h[2:1],4h[2:1],5h[4:3],7h[4:1],6h[2:1],8h[2:1],1h[2:1],{16}2,,2b,5b,4b,7b,1b,,
3,4,2,6,5,7,2,1,{8}3-5[8:1]b,2-6[8:1],3,2,{16}5,5,7h[8:1],,8,,56,,3,4,2,4,{8}1,78,
6<3[4:1],5,4-1[8:1],5,4,6,28,2h[8:1]/8,{16}1,8,7,6,{32}1,8,7,6,5,4,{16}3qq1[16:3]b/7,,3/7v6[16:3],{8},,,

2-4[8:1],1b,2/8-6[8:1],1b-5[8:1],8-4[8:1],1b,8b,1,{16}2,5,3,6,4,7,3,6,2,5,1,4,{8}2^5[8:1],,
2-7[8:1]/6-3[8:1],7,2/6^1[8:1],,{16}26,,3,3,8,,47,,3,5,2,5,1,5,8,5,{8}6-2[8:1]/7-3[8:1],58,6b/7b,,
{24}A1,E2,E3,E7,E6,A5,C,B4,A4,{8}7,7qq7[4:1],68,{16}8,1,2,3,{8}4bx,58,36,14,{24}2,3,2,3,2,3,{16}2,,14,,
2,2,4,4,6,6,8,8,{32}1,2,3,4,5,6,7,8,1,2,3,4,5,6,7,8,

{8}1hx[16:3]/4hx[16:3],,,{16}58,58,,D6/A6/D7/A7/D8,,,41,41,,D4/A3/D3/A2/D2,,,45,45,,1/7h[16:3],,,
1,2,3/E1f,4,5,6/E3f,7,8,1/E5f,2,3,4/E8f,5,6,7/E3f,8,1,2/E7f,3,4,5,67,,
1^8-5[124.8#4:1]/2,{4},,,{32}3b,24,1h[16:3]/5,,,,,,{1}Chf[32:1],,,,E

Re:MASTER


  • 追加しました。修正等ありましたらよろしくお願いします。 -- けもがみ (2025-10-06 17:01:26)
  • EXPERT譜面を追加しました。修正等ありましたらよろしくお願いします。 -- Sugar (2026-06-30 22:28:59)
名前:
コメント:

タグ:

+ タグ編集
  • タグ:
最終更新:2026年06月30日 22:28