アットウィキロゴ

おべんきょうたいむ

アーティスト litmus*

BPM BASIC ADVANCED EXPERT MASTER Re:MASTER
165 5 7+ 12 14 -

EXPERT MASTER Re:MASTER
譜面制作者 サファ太 はっぴー -

BASIC


ADVANCED


EXPERT


MASTER

(165)
{32}2bx/8bx,3bx/7bx,{16}4bx/6bx,,,3,4,2h[8:1],,4b,,,1b/8b,,,{8}5b/7b,,
56,56,,{16}5b/7b,,,1b/8b,,,2b/4b,,3,4,3,4,2,5,2,5,1,6,1,6,8w4[8:1],7,8,7,
{2}8x,{16}1-5[8:1],5,3,7,{4}1b,

3h[8:1]/8h[8:1],1h[8:1]/6h[8:1],3h[8:1]/8h[8:1],1h[8:1]/6h[8:1],
2h[8:1]/8h[8:1],1h[8:1]/7h[8:1],1h[8:1]/2h[8:1],7h[8:1]/8h[8:1],
3h[8:1]/8h[8:1],1h[8:1]/6h[8:1],3h[8:1]/8h[8:1],1h[8:1]/6h[8:1],
2h[8:1]/8h[8:1],1h[8:1]/7w3[8:1],7b,1x/5x,
5h[8:1]/7h[8:1],5h[8:1]/3h[8:1],5h[8:1]/7h[8:1],5h[8:1]/3h[8:1],
5h[8:1]/8h[8:1],5h[8:1]/2h[8:1],5h[8:1]/6h[8:1],5h[8:1]/4h[8:1],
5h[8:1]/7h[8:1],5h[8:1]/3h[8:1],{16}24,,,5>6[16:5]/7,,,5x/8h[8:5],,{4},,5-1[8:1],5b,

{16}2h[8:1],,4,4,3>7V13[8:3],5h[8:3],{8}4,3x,,,6,7h[8:1],{16}5,5,6,4,5,3,{4}4h[8:3],1h[8:1],
{16}7h[8:1],,5,5,6<2V86[8:3],4h[8:3],{8}5,6x,,,3,2h[8:1],4,6h[8:1],4,3h[8:1],5,46,46,
{16}7h[8:1],,5,5,6<2V86[8:3],4h[8:3],{8}5,6x,,,3,2h[8:1],{16}4,4,3-7[8:1],5,4,,{4}3/5-1[8:1],51,
{16}2h[8:1],,4,4,3,5h[16:5],{8}4,4,8,8,6,4/7h[8:1],5,3h[8:1],5,2b/6b,,1^4[8:1],,

5^8[8:1],6,4-1V35[8:3],3,5,7,8^5[8:1],1,4^1[8:1],3,5-8V64[8:3],6,4,2,1^4[8:1],8,
5^8[8:1],6,4-1V35[8:3],3,5,7,8,8,4-1[8:1],4-7[8:1],{2}4qq5[4:1],{8}8x^5[8:1],,
4^1[8:1],3,5-8V64[8:3],6,4,2,1^4[8:1],8,5^8[8:1],6,4-1V35[8:3],3,5,7,8^5[8:1],1,
4^1[8:1],3,5-8V64[8:3],6,4,2,1,1,5-7[8:1],5-3[8:1],5x-8[8:1],5x-2[8:1],5x-1[8:1],5x,5x,,

26,35,3-8-2[4:1]/5,,4,5-8-6[4:1],,4,3-8-2[4:1],,4,5-8-6[4:1],,4,3,3,
5b,64,6-1-7[4:1]/4,,5,4-1-3[4:1],,5,6-1-7[4:1],,5,4-1-3[4:1],,5,6,6,
5b,37,3/7V16[4:1],,5,3V14[4:1],,5,7V16[4:1],,5,3V14[4:1],,5,7>3v5[2:1],7x,
{4}5x,,,3-7[8:1]/5,3b/6-2[8:1],6b/4-8[8:1],4b,2b/6b,

{8}57,8,1,{16}2,2,{4}1bh[8:1]/3bh[8:1],6bh[8:1]/8bh[8:1],
{16}24,,3,5,4-2[8:1],6,4-7[8:1],5,{2}4-1[8:1],
{8}1x/8x,27,1-5[8:1]/8-6[8:1],27,{4}1-3[8:1]/8-4[8:1],18,
{16}26,,17,17,,5,4,3,2-6[8:1],1,8-4[8:1],7,{8}2b,8b,
1b,6b,4h[4:1],7b,6,7b,1-5[8:1],8-6[8:1],1-3[8:1],8-4[8:1],,,1b,2b/8b,4b/6b-3[8:1],,
2-7[8:1],1,6-3[8:1],5,2-7[8:1],1,6pp4>5[8:5],5,{4}Cf,,,{8}1h[16:1],1h[16:1],

42,1,8,{16}7,7,{4}8bh[8:1]/6bh[8:1],3bh[8:1]/1bh[8:1],
{16}75,,6,4,5-7[8:1],3,5-2[8:1],4,{2}5-8[8:1],
{8}8x/1x,73,8-4[8:1]/1-3[8:1],62,{4}8-6[8:1]/1-5[8:1],81,
{16}73,,5,4,3,4,5,6,7-3[8:1],8,1-5[8:1],2,{8}7b,1b,
8b,8,57,1,24,57,8-4[8:1],1-5-1[4:1],8b,1b,6b,7b,8b,7b/1b,5b/3b-6[8:1],,
7-2[8:1],8,3-6[8:1],4,7,8,{4}1>5[4:1],5<1[4:1],1>5[4:1],5<1[4:1],1,

{1}Ch[2:9],,{16}A1/E2,,,B1,{4}B2,{16}A8/E8,,,B8,{4}B7,
{16}A1/E2,,,B1,{4}B2,{16}A8/E8,,,B8,{4}B7,{16}A1/E2,,,B1,{4}B2,{16}A8/E8,,,B8,{4}B7,
{8}1,1,1,1,8,8,8,8,{16}1,8,1,8,1,8,1,8,1,8,1,8,{8}1,E2,E3,E4,E5,E6,E7,E8,{4}E1f,

{32}1bx,2,3,4,8bx,7,6,5,1bx,2,3,4,8bx,7,6,5,1bx,2,3,4,8bx,7,6,5,1bx,2,3,4,8bx,7,6,5,
1bx,2,3,4,8bx,7,6,5,1bx,2,3,4,8bx,7,6,5,1bx,2,3,4,8bx,7,6,5,1bx,2,3,4,7bx,6,5,4,
{16}5,6,7,8,1,2,3,4,5,4,3,2,1,8,7,6,5,6,7,8,4,3,2,1,5,6,7,8,{4}E1,
2h[8:1]/4-8[8:1],3h[8:1],{16}2,,2,1,,6,{8}5,7-4-1[4:1],7h[4:1],,,7,{16}7,8,,3,4,,
E2,E8,B3,B6,B2,B7,E4,E6,B1,B8,B4,B5,3x,,3x,,3,6,3,6,3,5,3,4,3-6[8:1],2,3,1h[16:3],{4}3b,

7h[8:1]/5-1[8:1],6h[8:1],{16}7,,7,8,,3,{8}4,2-5-8[4:1],2h[4:1],,,2,{16}2,1,,6,{8}5,
4-8[8:1],4h[4:1],,,7,{16}7,3,,3,5,,6,4,6,4,6,5,6,5,6-3[8:1],6,6,6,{4}6bx,
2h[8:1]/4h[8:1],7h[8:1]/5h[8:1],{16}7,,7,8,,3,{8}4,2-5-8[4:1],2h[4:1],,,2,{16}2,1,,6,5,,
B8,B2,E7,E4,E8,E3,B6,B4,E1,E2,E6,E5,7x,,7x,,6,4,6,4,6,5,6,7,6,8,6,1,{4}5bhx[4:1],

4,,{8}E3,E4,E7,E6,{1}4>8>4[2:1],
{2}5,{8}E7,E6,E3,E4,{4}5h[8:1],6h[8:1],4h[8:1],{8}5<3[2:1],6,
{4}4,4,4,{8}4/5<3[2:1],6,{4}4,4,4,{8}4/5<1[4:1],6,4,,4,,48,7,64,3,
{16}3,5,3,5,2,6,2,6,1v4[8:1]*v6[8:1],7,1,7,{8},,

37,1,5,{16}7,7,{8}6b/8bh[8:1],6,2bh[8:1]/4b,4,
57,{16}6,4,5-7[8:1],3,5p1[8:1],4,{2}5^8[8:1],
{8}1x/8x,37,2-4[8:1]/8v5[8:1],16,28,,4-2[8:1]/5-7[8:1],36,
{2}4v5[8:1]/5v4[8:1],{16}8,1,8,1,2x,3x,{8}4x,
8h[16:3],4h[16:5],7,6h[4:1],3,2h[8:1],8V64[4:1],3,
4-2[8:1],1,8,8,8b,1b/7b,3b-6[8:1]/5b,,
7-1[8:1],8,3v6[8:1],4,7^2[8:1],8,{4}4-6[8:1]*-7[8:1],
4-1[8:1]*-2[8:1],4-8[8:1],4^1[8:1]b*^7[8:1]b,
{1}4<3>5[2:7]*^3-6-2-7-1^8V27-3-6V82-4[2:7],,,,{8}2x/7x,,

3^6[8:1],14,3,8,{16}8h[16:3],,,6h[16:3],,,5,,
45,,3,4,2,3,1,2,8h[8:1],,,3h[8:1]/5h[8:1],,,26,,
3,4,2,6,5,7,2,4,3,,,57,,,2,8,2,8,2,8,2,1,2,3,2-8[8:1],4,2,5,{4}2b,
{16}6pp2[1:1],4,7,5,{1}8h[4:5],,,,E

Re:MASTER


  • 追加しました。修正等ありましたらよろしくお願いします。 -- けもがみ (2025-10-07 18:26:33)
名前:
コメント:

タグ:

+ タグ編集
  • タグ:
最終更新:2026年01月08日 19:47