| アーティスト |
Mitsukiyo「ブルーアーカイブ -Blue Archive-」 |
BASIC
ADVANCED
EXPERT
MASTER
(180)
{8}
6,,5,,4,,,3,
3,,4,,5,,,,
7,7,5,6,2,2,4,3,
7h[4:1],,5h[4:1],,4h[4:1],,2,,
6,,5,,4,,,3,
3,,4,,5,,,,
7,7,5,6,2,2,4,3,
5,,6/2,,7/1,6b/2b,6b/2b,,
{8}
8-4[8:1],,3<6[8:1],,7h[8:3],,,8,
8,6/1,6-4[8:1]/1-3[8:1],,6/1,,,,
2,2,4,4,3,3,7,7,
5,5,6,,7/8,,4/2,,
1-5[8:1],,6>3[8:1],,2h[8:3],,,1,
1,8/3,8-6[8:1]/3-5[8:1],,8/3,,,,
7,7,5,5,6,6,2,2,
4,4,3,3,8bh[4:1],,1,1,
{8}
7-3[8:1],,2<7[8:1],,6h[8:3],,,4,
4,7/4,7-5[8:1]/4-2[8:1],,7/4,,,,
1,1,4,2,8,8,5,7,
3,5,2,4,1,,5/3,,
2-6[8:1],,7>2[8:1],,3h[8:3],,,5,
5,5/2,5-7[8:1]/2-4[8:1],,5/2,,,,
8,8,5,7,1,1,4,2,
6,4,7,5,8b<5[8:1],,,,
{8}
2-4[8:1],2,8-6[8:1],8,1-5[8:1],1,8,8,
7-5[8:1],7,1-3[8:1],1,8-4[8:1],8,1,,
1>5[4:1],,5<1[4:1],,1>5[4:1],,5<1[4:1],,
1>5[4:1],,5<1[4:1],,1,,5,,
7-5[8:1],7,1-3[8:1],1,8-4[8:1],8,1,1,
2-4[8:1],2,8-6[8:1],8,1-5[8:1],1,8,,
8<4[4:1],,4>8[4:1],,8<4[4:1],,4>8[4:1],,
8<4[4:1],,4>8[4:1],,8,,4,,
{8}
3-5[8:1],3,7-1[8:1],7,2-6[8:1],2,8,8,
3-5[8:1],3,7-1[8:1],7,2-6[8:1],2,8,,
8V64[4:1],,4V28[4:1],,8V64[4:1],,4V28[4:1],,
8V64[4:1],,4V28[4:1],,8,,4,,
6-4[8:1],6,2-8[8:1],2,7-3[8:1],7,1,1,
6-4[8:1],6,2-8[8:1],2,7-3[8:1],7,1w5[8:1]b,,
,,,,,,6/4,,
3,,5/3,5/3,,8b/1b,8b/1b,,
{8}
7/5,,5/4,,4h[16:3]/2h[16:3],,,E2,
E3,E4,E6,E7,E8,,6xh[8:1]/5xh[8:1],,
7,7,5,,2,2,4pp3[2:1],,
,,,,,,4h[8:1]/3h[8:1],,
2,,5/4,,7h[16:3]/5h[16:3],,,E8,
E7,E6,E4,E3,E2,,4xh[8:1]/3xh[8:1],,
2,2,4,,7,7,5,,
6/5,,7/8,,1/2,,4/3,,
{8}
5/2,,6/3,,7h[16:3]/4h[16:3],,,E4,
E3,E2,E8,E7,E6,,6xh[8:1]/5xh[8:1],,
7,7,5,8,2,2,4,1,
6,6,5,7,1-5[8:1],,,,
7/4,,6/3,,5h[16:3]/2h[16:3],,,E8,
E7,E6,E2,E3,E4,,4xh[8:1]/3xh[8:1],,
2,2,4,1,7,7,5,8,
3,3,4,2,8b,,,,
{16}
3,4,3,4,3,4,3,4,2,4,2,4,2,,,,
6,5,6,5,6,5,6,5,7,5,7,5,7,,,,
3,4,3,4,3,4,3,4,2,4,2,4,2>8[2:1],,,,
C,,,,,,,,,,,,,,7/4,,
6,5,6,5,7,5,7,5,6,5,6,5,6,,,,
3,4,3,4,2,4,2,4,3,4,3,4,3,,,,
6,5,6,5,7,5,7,5,6,5,6,5,6,,,,
7/5,,,,8/1,,,,4/2,,,,5/4,,,,
6,5,6,5,6,,7,,8,,1,,2,,3,,
3,,4x/2x,,,7x/5x,,,4x/3x,,,6xh[16:3]/5xh[16:3],,,,,
{16}
7,8,7,8,7,8,7,,2,1,2,1,2,1,2
{8}
8-4[8:1],8,1-5[8:1],1,7-4[8:1],7,2,,
{16}
3,4,3,4,3,4,3,4,2,5,2,5,2,5,2,5,
{8}
1-5[8:1],1,7-2[8:1],7,3-6[8:1],3,8,8,
7/5,7/5,7/5,,4/2,4/2,4/2,,
8bx/1bx,8bx/1bx,8bx/1bx,8bx/1bx,8bx/1bx,,6/3,,
{8}
2,2,4,3,6,5,7,7,
3,3,1,2,7,8,6,6,
7-5[8:1]/8-4[8:1],,7/8,,1-5[8:1]/2-4[8:1],,1/2,,
7-5[8:1]/8-4[8:1],,7/8,,1-5[8:1]/2-4[8:1],,1/2,,
7,7,5,6,3,4,2,2,
6,6,8,7,2,1,3,3,
2-4[8:1]/1-5[8:1],,2/1,,8-4[8:1]/7-5[8:1],,7/8,,
2-4[8:1]/1-5[8:1],,2/1,,8-4[8:1]/7-5[8:1],,7/8,,
{8}
2,2,4,1,6,4,7,7,
3,3,8,1,6,4,7,7,
7-4[8:1]/8-3[8:1],,7/8,,1-6[8:1]/2-5[8:1],,1/2,,
7-4[8:1]/8-3[8:1],,7/8,,1-6[8:1]/2-5[8:1],,1/2,,
7,7,5,8,3,5,2,2,
6,6,1,8,3,5,2-6[8:1],,
2,,7h[4:1],,4,,3,,
4h[4:1],,5,,,,,8-4[8:1]/1-5[8:1],
8/1,,,,,,,,
A7/E8/E2/A2,,E6/B5/B4/E4,,E
Re:MASTER
(180)
{4}6,5,{16}4,,,4,,,{8}6,5,4,3,4,5,{16}3,3h[16:5],{8},,4,5,6,3,4,5,4,5,6,5,4,3,{4}2h[2:7],4,
A6,B5,{16}E4,,,A3,,,{8}A6,D6,E6,A5,E5,A4,{16}D4,A3,{8},,
A6,D6,E6,A5,E5,A4,E4,D4,E1,E8,E7,E6,4-1[8:1]b,5x/6x,{4}A4f/7-5[8:1],
7-2[8:1]/8-2[8:1],7^4[4:1]/8p3[4:1],,{8},12,12,38,38,4v2[16:3]/7v1[16:3],{2}56,
{8}24,5,36,2,57,8,25,1,35,6,4/6-8[8:1],3,{4}3,2b-4[8:1]/1b-4[8:1],
2-7[8:1]/1-7[8:1],2^5[4:1]/1q6[4:1],,{8},87,87,61,61,5v7[16:3]/2v8[16:3],{2}43,
{8}75,4,63,7,42,1,74,8,64,3,53,6,8,1,{4}3b-1[8:1]/4b-1[8:1],
3-6[8:1]/4-6[8:1],3^8[4:1]/4p7[4:1],,{8},56,56,74,74,8v6[16:3]/3v5[16:3],{2}12,
{8}68,1,72,6,13,4,61,5,71,2,82,7,{4}47,6b-8[8:1]/5b-8[8:1],
6-3[8:1]/5-3[8:1],6^1[4:1]/5q2[4:1],,{8},43,43,25,25,1v3[16:3]/6v4[16:3],{2}87,
{8}31,8,27,3,86,5,38,4,2b/8b,7,1b/7b,2,{4}3b/8b,2-5[8:1]/6,
{8}7-1[8:1],6,4-8[8:1],5,6,6,7-3[8:1],8,7-5[8:1],1,7-1[8:1],4,7-4[8:1],4,7,1,
{4}5<1[4:1],1>5[4:1],5V71[4:1],1V35[4:1],5qq6[8:3],1,1,3/7-2[8:1],
{8}4-6[8:1],3,1-5[8:1],8,3,3,4-8[8:1],5,4-2[8:1],6,4-6[8:1],1,4-1[8:1],1,4,6,
{4}2>6[4:1],6<2[4:1],2V46[4:1],6V82[4:1],2,{16}6,,6,4,{8}5,5,7b-4[8:1]/3b,,
2-8[8:1],3,5-1[8:1],4,3,3,2-6[8:1],1,2-4[8:1],8,2-8[8:1],5,2-5[8:1],5,2,8,
{4}4>8[4:1],8<4[4:1],4V28[4:1],8V64[4:1],4pp3[8:3],8,8,6/2-7[8:1],
{8}5-3[8:1],6,8-4[8:1],1,6,6,5-1[8:1],4,5-7[8:1],3,5-3[8:1],8,5w1[8:1],8,{4}5,
3bx/7bx,4h[8:1]/6h[8:1],3h[8:1]/5h[8:1],35,3h[8:1]/5h[8:1],4h[8:1]/6h[8:1],{8},8,{4}1-5[8:1],
1b/6b,6,{16}56,,,45,,,34,,{4}34,35,{8}2-4[8:1]/6^4[8:1],17,{4},
3,3,{16}43,,,54,,,65,,{4}65,64,{8}7-5[8:1]/3^1[8:1],84,{4},
2,3,{16}43,,,54,,,65,,{4}65,64,{8}7-5[8:1]/5^3[8:1],84,{4},
6,6,{16}56,,,45,,,34,,{4}34,35,{8}2^8[8:1]/6-4[8:1],37,{4},
1h[8:1]/5h[8:1],4h[8:1]/7pp5[8:3],{16}5,,,4,,,{8}3,3-8[8:1],4,7-4[8:1],6,{2}1^4[8:1]*^6[8:1],
{8}7-3[8:1],3-7[8:1],2,1,1-5[8:1],5-1[8:1],6,7,8-6[8:1],8-2[8:1],{4}8-4[8:1],,5x/7x,
8h[8:1]/4h[8:1],5h[8:1]/2qq4[8:3],{16}4,,,5,,,{8}6,6-1[8:1],5,2-5[8:1],3,{2}8V24[8:1]*V64[8:1],
{8}2-6[8:1],6-2[8:1],7,8,8-4[8:1],4-8[8:1],3,2,1pp3[8:1],1qq7[8:1],{4}1V35[8:1],,8b,
{16}3b,4,3,4,2,5,2,5,3,4,3,4,2,5,2,5,3,4,3,4,2x,4,3,7x,5,6,2x,4,3,7x,5,6,
3,4,3,4,2,5,2,5,1,6,1,6,8,7,8,7,1b,,{32}5,4,3,2,1,8,7,6,5,4,3,2,{8}1,,2b/6b,7,
{16}B1,B3,D4,B8,B6,D6,A2,E3,E4,A7,E7,E6,1,2,3,4,7,5,7,5,8,7,6,5,2,4,2,4,1,2,3,4,
{8}57,6,24,3,57,6,17,8,13,2,68,7,{4}1-5[8:1]/8-4[8:1],1b/8b,
{16}3,4,3,4,{8}3,2,12,8,78,6,56,{16}2b,3,4,8b,7,6,4b,3,2,5b,6,7,2,,
2x,1,2,1,3x,4,3,4,8x,7,8,7,5x,6,5,6,2x,4,2,4,1x,5,1,5,8x,6,8,6,{4}7x,
{16}8,7,6,5,8,7,6,5,1,2,3,4,1,2,3,4,{8}8,57,1,24,5,17,4,17,68,57,46,35,24,13,82,71,
6bx/8bx,6bx/8bx,6bx/8bx,6bx/8bx,{4}6bx-2[8:1]/8bx-4[8:1],6b/8b,
{8}1>5[4:1],7,5qq1[8:3],6,7,7,6,7,8<4[4:1],2,4pp7[8:3],3,2,2,3,2,
1-5[8:1],5,6-2[8:1],8,3-8[8:1],4,5-7[8:1],6,1-5[8:1],2,8-4[8:1],7,3,3,7-1-6-2[2:1],,
4,4,4,4,4,4,3-5-2-6[2:1],3,8,8,8,8,8,8,{4}4^1[8:1]/8^5[8:1],
4q8[8:1]/8q4[8:1],4^1[8:1]/8^5[8:1],4q8[8:1]/8q4[8:1],4^1[8:1]/8^5[8:1],48,{16}37,,2,8,{8}2,46,3b/7b,,
3/8-4[8:1],3,3,3,3/5-1[8:1],3,3,3,3/2v5[8:1],3,3,3,36,2,1/8-4[8:1],7,
8/1-5[8:1],2,1/8-4[8:1],7,8/1-5[8:1],2,1/8-4[8:1],7,
8/1-5[8:1],2,1/8-4[8:1],7,8/1-5[8:1],2,8h[4:1]/1,,
4,4,6<2[4:1],6,2<6[4:1],3,4,5,4,4,3>7[4:1],3,7>3[4:1],6,5-8[8:1],4,
5b,,4,35,6,5,46,{16}7,5,7,5,{8}6,3,24,5-1[8:1],7,{1}5b/2bw6[8:1]b,1^2v4^3-1[2:1]/7qq8[2:1],,,,,E
- 追加しました。修正等ありましたらよろしくお願いします。 -- けもがみ (2025-10-08 16:15:39)
最終更新:2026年03月29日 14:06