アットウィキロゴ

Eureka

アーティスト sasakure.UK × ArmyTom (w/z Bitplane)

BPM BASIC ADVANCED EXPERT MASTER Re:MASTER
150 3 7+ 11+ 14 -

EXPERT MASTER Re:MASTER
譜面制作者 サファ太 Luxizhel vs サファ太 -

BASIC


ADVANCED


EXPERT


MASTER

(150)
{16}4h[16:61]/6,,,6h[16:3],,,,,6,,,6h[16:3],,,,,6,,,6h[16:3],,,,,6,,,5,,B4,,,
6,,,6h[16:3],,,,,6,,,6h[16:3],,,,,6,,,6h[16:3],,,,,6,,,5,,B4,,,
6,,5,6h[16:3],,,5,,6,,5,6h[16:3],,,4,,2,,4,2h[16:3],,,4,,2,,5h[16:3],3h[8:1],,,,,
6,,5,6h[16:3],,,5h[8:1],,7,,5,7h[16:3],,,5,,6h[8:1]/8h[8:1],,,68,,57,,4,{24}5,3,5,{8}3,1b/4b,,

8b,7,6-2-7-1[8:3],5,{2}4h[4:1],{8}4b,3,2-6-3-5[8:3],1,{2}8h[4:1],
{8}8b,1,2-6-1-7[8:3],3,{2}4h[4:1],{8}4b,5,6v1[8:1]b,7,8hx[4:1],,2x,,
1b^8-6[4:1],2-4^5-1[8:3],{4}3,,6x,{8}8b^1-3[4:1],7-5^4-8[8:3],{4}6,,3x,
{8}8b-6^5-1[16:5],1,{4}2-4[8:1],,38,{16}6,5,6,5,{8}7>5[4:1],6,5,,1b,,

{16}2bh[16:3],,,4,3,4,,4,2,4,,4,3,,34,,2h[16:3]/3,,,1,2,1,,1,4,1,,1,2,8,8,1,
7h[16:3],,,5,6,5,,5,8,5,,5,6,,65,,7h[16:3]/6,,,8,7,8,,8,5,8,,8,7,1,1,8,
2h[16:3],,,4,3,4,,4,1,4,2,4,3,4,2h[8:1],,8h[16:3],,,5,6,5,,5,8,5,7,5,6<3[4:1],4,5,3,
{4},6<3[4:1]b,,6h[4:1],{24}3,2,1,8,7,6,5,4,3,2,1,8,5,6,7,8,1,2,3,4,5,6,7,8,

{2}1bx/5hx[2:1],2,3/5h[2:1],4b,
{4}6h[4:1],{16}4,5,6,7,,7,,7h[16:5],,,,,5,,5,6,,47,,4h[8:3]/7h[16:5],{2},
{24}A6,D6,A5,D5,A4,D4,{16}A3/1bx,,,2,,2,,2h[16:5],,,,,4,,4,3,,52,,5h[8:3]/2h[16:5],{4},,
3h[4:1],{16}5,4,3,2,,2,,2,4,3,5,4,6h[16:3],,,1h[16:3],,,3h[2:1],,,7h[16:5],,,{4},

{16}4-8[8:1],8,,2,4,,3,,{12}4^1[8:1],8,7,6,5,4,
{16}3h[8:1],,,1h[8:1],,,6h[8:1],,{12}8-2[8:1],7,7,86,,,
{16}5-1[8:1],1,,7,5,,6,,{12}5^8[8:1],1,2,3,4,5,
{16}6h[8:1],,,8h[8:1],,,3h[8:1],,{12}1^6[8:1],2,2,13,,,

{16}5,,7,7h[8:1],,5,5h[8:1],,4,4h[8:1],,2,2h[8:1],,7-4[8:1],8,,1,1,,2-5[8:1],3,,5,
5,,6-1[8:1],7,,5,5,,4-7[8:1],3,,8,8,,1-6[8:1],8,,3,3,,4,4,,7,
7,,{32}6h[32:3],,,4h[32:3],,,{16}5,5,4,4,7,38,,
2h[32:1],1h[32:1],2h[32:1],1h[32:1],3h[32:1],4h[32:1],3h[32:1],4h[32:1],
8h[32:1],7h[32:1],8h[32:1],7h[32:1],5h[32:1],6h[32:1],5h[32:1],6h[32:1],
4h[32:1],6h[32:1],4h[32:1],6h[32:1],3h[32:1],7h[32:1],2h[32:1],8h[32:1],
1h[32:1],1h[32:1],1h[32:1],1h[32:1],1h[32:1],1h[32:1],1h[32:1],1h[32:1],

{1}1b>8[2:7],{32}E3,B3,{16},{8},{4},{2},{32}B4,E5,{16},{8},{4},{2},{32}E7,B6,{16},{8},{4},{2},
1/8h[1:1],{24}A6,D6,A5,D5,A4,,{4},2h[1:1],,{16}B2,E3,B3,A3,{4},
7h[1:1],,{16}B7,E7,B6,A6,{4},{2}5-8[4:3],B2/B3,

1h[4:1],{24}1/A3,D4,A4,D5,A5,,{4},{2}1h[4:1]/4h[4:1],1/B4/B5,
2h[4:1],2/C,2h[4:1]/8z4[4:1],2-6[8:1]b,
{8}8h[8:1],5,{4}4/7^2^7[2:1],5x,3,{8}1h[8:1],6,{4}5/2^7^2[2:1],4x,6,
{8}8h[8:1],2,37,6,1h[8:1],5,3/4h[4:1],,
{32}E5,E6,E7,E8,E1,E2,E3,E4,E5,E6,E7,E8,E1,E2,E3,E4,{2}E5/6hx[2:1],

{16}3b,5,3,5,3,5,4,6,5,6,4,5,3,4,3,4,3b,5,3,5,3,5,4,6,5,6,4,5,3,4,3,4,
2b,5,2,5,3,4,3,4,2x,3,2,3,1x,3,1,3,2qq2[4:1],4,2,4,{4}2V47[4:1]*-5-7[4:1],,,
{16}6b,4,6,4,6,4,5,3,4,3,5,4,6,5,6,5,6b,4,6,4,6,4,5,3,4,3,5,4,6,5,6,5,
7b,4,7,4,6,5,6,5,7x,6,7,6,8x,6,8,6,7pp7[4:1],4,7,4,{4}7V52[4:1]*-4-2[4:1],,,

{8}46,{16}3^2v5[16:3],4,{8}2,8,8,7,46,7,46,{16}6^7v4[16:3],5,{8}7,1,1,{16}2,1,{8}3h[4:1],,
4,{16}3^4v1[16:3],4,{8}2,5,7,6,17,7,46,{16}6^7v4[16:3],5,{8}7,1,1,{16}1,3,{8}2h[4:1],,
5x,{16}3,4,{8}2v7[8:1],35,6,4v1[8:1],5,7,6,{16}7,1,{8}8v3[8:1],12,2,4,5h[4:1],,
7,{16}6,5,{8}7^6v1[16:3],46,3,4^5v8[16:3],3,2,{2}1h[2:1],{8}5w1[8:1],46,,,

{16}7b,3-7[8:1],,5,,3,8,,{12}1-5[8:1],5,5,1^6[8:1],3,3,
{16}1,,4,3,2,,2-6[8:1],,{24}8,,8,{8}2,7h[4:1],,
{16}4,6-2[8:1],,2,,6,1,,{12}8-4[8:1],4,4,8^3[8:1],6,6,
{16}8,,6,7,8,,8,,{24}18,7,6,4,3,2,8,7,6,{16}5b/1b,,
{16}4,2-6[8:1],,1,,2,8,,{12}7^2[8:1],4,4,7-4[8:1],5,5,
{16}7,,3,2,1,,1-5[8:1],,{24}8,,8,{8}1,7h[4:1],,
8-5[8:1],{16}7,1,8,,3,,{12}46,46,46,35,35,35,
{24}4,3,2,1,8,7,6,5,4,3,2,1,8,1,2,3,4,5,6,7,8,1h[8:1],,,

{16}4^7[8:1],,5,2,4-2[8:1],,3,,{12}8-4[8:1],7,7,1,2,2,
{16}1^6[8:1],,2,4,1-3[16:1],,3,,{12}1V75[8:1],5,5,1b,,,
{16}4-2[16:1],,1,8,4-8[8:1],,6,,{12}4,7,7,2^7[8:1],3,3,
{16}7,,5,4,3,,26,,{24}8,1,7,{8}8,1b/6b,,
{16}5b^2[8:1]/8b,,4,7,5-7[16:1],,6,,{12}1-5[8:1],2,2,8,7,7,
{16}8^3[8:1],,7,5,8-6[16:1],,6,,{12}8V24[8:1],4,4,8b,,,
{16}5-7[16:1],,8,1,5-1[8:1],,3,4,{12}5,2,2,37,37,37,
{16}8h[8:1],,1,2h[8:1],,3,4h[8:1],,{32}5,6,7,8,1,2,3,4-1[32:5]b,{4}5h[8:1]/8h[8:1],
{48}B8/E8f,B7,B6,{1}E6,,,,E

Re:MASTER


  • 追加しました。修正等ありましたらよろしくお願いします。 -- けもがみ (2025-10-09 22:01:04)
名前:
コメント:

タグ:

+ タグ編集
  • タグ:
最終更新:2026年04月11日 21:42