アットウィキロゴ

ニルヴの心臓

アーティスト TJ.hangneil + Atomic Sphere feat.Annabel

BPM BASIC ADVANCED EXPERT MASTER Re:MASTER
256 6 8 12+ 14 -

EXPERT MASTER Re:MASTER
譜面制作者 Luxizhel サファ太 -

BASIC


ADVANCED


EXPERT


MASTER

(256)
{2}3bhx[2:1],{8}4,3,6,5,{4}7hx[4:1],6,2h[4:1],4^7p3[4:3],{2}1h[4:1],1h[4:1],
Ch[2:1],{8}8,8,,,{2}1bh[2:1]/7b,{8}4,4,2,3,{2}2h[4:1]/4h[4:1],4h[4:1]/5h[4:1],
5/7hx[2:1],{8}5,6,3,4,{4}2hx[4:1],3,7h[4:1],5^2q6[4:3],{2}8h[4:1],8h[4:1],
Ch[2:1],{8}1,1,,,{2}8bh[2:1]/2b,{8}5,5,6,6,{4}5h[4:1]/7,6,3h[4:1]/5,4-6^8[4:3],

{1}B2/B3/E3f,{4}1bh[2:1],,8,2h[4:1]/4,{8}5,6,4,3h[4:1],,4,,2/5h[8:3],,,
3,,5x/7x,5x/7x,,46,,5/7h[8:3],,,4,4,5,4h[8:3]/6h[4:1],,,7h[4:1],5h[4:1],,,4x/8x,,
{1}1b<5[2:1]b/2h[4:3],{2}2x/4x,{8}5,4,35,4,2,{4}2V83-5[4:3],4,5,6h[8:3],,{8},
5x/7x,5x/7x,,48,,5/7h[8:3],,,6,,58,58,7,4,6,2,15,15,15,15,

{2}1s5[4:5]/5,,,7s3[4:5],,,2z6[4:5],,,5s1[4:5],,,
2h[2:1],8h[2:1],Ch[4:1],7h[2:1],1h[2:1],Ch[4:1],3h[2:1],1h[2:1],Ch[4:1],{4}8,8,7,6,5,4,
{8}3h[4:1],,,3h[4:1],,,{4}3^5-2[2:1],5,7,{8}1h[4:1],,,1h[4:1],,,{4}1^6[2:1],2,,
{8}5h[4:1],,,5h[4:1],,,{4}5^2-8[2:1],6,7,{2}Chf[2:3],,,

{1}1b>1[4:13]*V75V31[4:13],,,,
{4}1bhx[4:1],8,2h[4:1],{8}4,4,{2}3h[4:1],4h[4:1],
5h[4:1]/7,6h[4:1]/Ch[4:1],{4}7h[4:1],E1,8h[4:1],,
1bhx[4:1]/7,6,2h[4:1],{8}4,4,{2}3h[4:1],4h[4:1],
{4}5h[4:1]/7,7,6h[4:1]/Ch[4:1],,7h[4:1],E1,8h[4:1],,
1bhx[4:1]/7bx,6,2h[4:1]/5,{8}4,4,{4}3h[4:1]/4,5,4h[4:1]/7,{8}6,6,
{4}5h[4:1],,4/6h[4:1],Ch[4:1],7h[4:1],B3/E3,2x/8h[4:1],,
1bhx[4:1]/7bx,6,2h[4:1]/5,{8}4,4,{4}3h[4:1]/4,5,4h[4:1]/7,{8}6,6,
{2}5h[4:1]/6,6h[4:1]/Ch[4:1],{4}7h[4:1]/8,B3/E4,{8}8,8,1,8,

2b,2,4,3,6,6,4,8,5-3[8:1],5,7,7,2-6[8:1],2,5,,
7b,7,5,6,3,3,5,1,4-6[8:1],4,2,2,7-3[8:1],7,4,,
2b,2,4,4,6,6,8,8,2,2,4,4,6,6,8,8,
17,1,16,6,64,4,4h[8:1]/8h[8:1],,{16}8,7,6,5,8,7,6,5,1,2,3,4,1,2,3,4,

{1}Ch[1:6],,B1,,B2,,B3,,Ch[8:3]/B4,E5,Ch[8:3]/B5,E6,Ch[8:3]/B6,E7,
{4}Ch[8:3]/D8/E8,D7/E7,D6/E6,D5/E5,D4/E4,D3/E3,8x/D2/E2,,

{8}8bh[4:1],,,4/7h[8:3],,,5,5,6,5,4,3,5,4,3,2,
1h[4:1],,,5/2h[8:3],,,4,4,3,4,5,6,4,5,6,7,
8bh[4:1],,,4/7h[8:3],,,5,5,6,5,4,3,5,4,3,2,
1h[4:1],,,1h[4:1],,,2h[4:1]/8h[4:1],,,2h[4:1]/8h[4:1],,,37,,46,,
5,5,4,4,6,6,{4}5V31[4:3],8h[8:1],8h[8:1],8h[8:1],8,
{8}8,8,1,1,7,7,{4}8V24[4:3],5h[8:1],5h[8:1],5h[8:1],5,
{8}4,4,5,5,3,3,{4}4<1[1:1],2h[8:1],2h[8:1],2h[8:1],2<4z8[8:13]b,{1},,

{8}1b/7b-5[8:1],,3,3,4,2,,17,1/7-5[8:1],,3,3,4,1h[4:1],,7,{4}7-4[8:1]b,3-8[8:1]b,6-1[8:1]b,2,
{8}4-2[8:1]/8b,,6,6,1,7,,48,4-2[8:1]/8,,6,6,1,7,,48,{4}4-1[8:1]b/8,7-4[8:1]b,8,1,
2-5[8:1]/8x,8,6-1[8:1]/8,8,2-5[8:1]/8,8,6-1[8:1]/8,8,2^5[8:1]b/8,6-1[8:1],3-8[8:1]b,8,
2/7-4[8:1],2,2/3-8[8:1],2,{8}1,1,7,7,26,26,26,2p4[2:1]/6p8[2:1],26,2x/6x,{4},,,

{8}3/7b,37,,15,1-3[8:1]b/5,,4,4-8[8:1],,3,,2-6[8:1],,1,1V75[8:3]b,,
5x,{4}5,4h[4:1],3h[4:1],2^7[8:1],{8}6,6^3[8:1]b,,1x,1x-4-6[2:1],,7,,
6,,8,8,,56,5^2[8:1]/6,,7,7V51[4:1]b,,1,,3,,
{1}4bxV63[2:1]b/8bxV61[2:1]b,{8}2b,3,4,5,3,4,57,6,
7,{4}7^2[4:1],2-6^3[2:1],3,2,{8}1,1h[4:1],,4,2/5-7[8:1],,5-3[8:1],,
5-1[8:1],,5,2,3,4,58,,37,37,,15,15,15,15,

2b/6b-1[8:1],,6,3b^5[8:1],,3,8,,6b-2[8:1],,6,1b-5[8:1],,1,7,,
8b-6[8:1],,8,4b-2[8:1],,4,1,,7b-5[8:1],,7,1b-3[8:1],,1,4,,
6b-2[8:1],,6,1b-7[8:1],,1,4,,6b^3[8:1],,6,2b-6[8:1],,2,1,,
{1}6bxV48[2:1]b/7bxV52[2:1]b,{8}1b-5[8:1],8,1,7b^2[8:1],,7,4b,4,
8b-4[8:1],1,8,2b^7[8:1],,2,5b,5,2b-6[8:1],6,2,1b^6[8:1],,1,4b,4,
7b-3[8:1],3,7,8b^3[8:1],,8,5b,5,16,1,37,7,48,48,48,48,

{1}8h[4:15]/Ch[1:2]/B4f,,,{4},,,3,
{8}2b-4[8:1],1,2,7,{16}7,6,5,4,1,2,3,4,{8}7-5[8:1],8,7,2,{16}2,3,4,5,8,7,6,5,
{8}3-1[8:1],4,3,7,{16}7,6,5,4,1,2,3,4,{4}6-1[8:1]b*-2[8:1],6,3b/8b,16,
{8}2b-4[8:1],4,2,7,{16}7,6,5,4,8,1,2,3,{8}7-5[8:1],5,7,2,{16}2,3,4,5,1,8,7,6,
{8}3-1[8:1],4,3,7,{16}7,6,5,4,8,1,2,3,{4}7-4[8:1]b*-3[8:1],7,1w5[8:1],1,
3b/7b,{8}2,2,4,4,6,6,8,8,6,6,{4}5h[8:1]/7h[8:1],5h[8:1]/7h[8:1],
{8}48,48,37,37,26,26,15,15,{16}48,7,6,5,1,2,3,4,1,8,7,6-2[8:1]b,51,48,{1}37,,,,E

Re:MASTER


  • 追加しました。修正等ありましたらよろしくお願いします。 -- けもがみ (2025-10-11 18:18:34)
名前:
コメント:

タグ:

+ タグ編集
  • タグ:
最終更新:2026年04月05日 21:49