アットウィキロゴ

Customized Justice

アーティスト Kobaryo

BPM BASIC ADVANCED EXPERT MASTER Re:MASTER
292 6 8+ 13 14+ -

EXPERT MASTER Re:MASTER
譜面制作者 Luxizhel サファ太 vs じゃこレモン -

BASIC


ADVANCED


EXPERT

(292)
{1}4h[4:8],,5h[4:8],,6b>2[4:6],,
{4}1,1h[4:3],,,B4/E4,,,,
{1}2b>6[4:6],,
{4}7,7h[4:3],,,8,,1/6,,7,7,7/8,,6,6,5/6,,3,3,3/4,,2,2,1/2,,
{8}2h[8:4],,,,4,,,,7h[8:4],,,,5,,,,
{4}6,6,4,4,5,5,3,3,4^1[4:5]*^7[4:5],,,,,,,,8,8,1,1,8,1,2/7,,2/8,2/8,4/5,4/5,2/8,2/8,4/5,4/5,1/7,1/7,4/5,4/5,
{8}7,7,8,,1/6,,,,
{4}7/8,7/8,3/5,3/5,7/8,7/8,3/5,3/5,1h[8:2]/2h[8:2],,3h[8:2]/8h[8:2],,
{8}2,2,1,,8/3,,,,
{4}7h[4:1],8h[4:1],6,4/5,
{8}3,3,4,,2x/5x,,,,
{4}2h[4:1],1h[4:1],3,4/5,
{8}6,6,5,,7x/4x,,,,
{4}5/6,5/6,7/8,7/8,5/6,5/6,5bx/6bx,,
{8}7h[8:3],,,8h[8:3],,,1-5[8:1],,
{2},4/6,2h[4:8],,4x,,3h[4:4],,1x,2/4,
{4}3,3h[4:1],4,4h[4:1],2,2h[4:1],3,3h[4:1],1,1h[4:5],2,2,2,2,2,,8h[4:8],,,,5x,,,,6h[4:4],,,,7x,,6/7,,7,7h[4:1],5,5h[4:1],6,6h[4:1],7,7h[4:1],8,8h[4:4],7,7,7,7,,1bx/6bx,,,,2>7[4:5],,,,,,8,,8<3[4:5],,,,,,2x,,1/8,,1/8,,E

MASTER

(292)
{8}E2,E3,E4,E5,E6,E7,D2,D3,D4,D5,D6,D7,{2}D8/E1,
{8}E8,E7,E6,E5,E4,E3,D8,D7,D6,D5,D4,D3,{2}D2/Ch[2:1],

{1}A1/A8/B1/B8/D1/E1f,,{4}2x/8x,2hx[4:5]/8x,,,{1}1h[2:1],A3f/B3/D3/E3/Ch[1:1],,
{8}1x/8x,,1hx[4:1]/8hx[4:1],,,1x/8x,,2hx[4:1]/7hx[4:1],,,{4}2x/7x,3x/6x,4x-1-7[2:1],
5x,,6,6-1-3[2:1],5x,,4,4-1-7[2:1],5x,,6,6-1V38[4:3],5x,,4,4,
5h[8:1]/7h[8:1],57,3h[8:1]/4h[8:1],34,5h[8:1]/6h[8:1],5b/6b,2h[8:1]/4h[8:1],24,
{8}1,1,5,5,2,2,4,4,3,3,8,8,4,4,7V13-5<4[2:3]b,,{1}B5/B6/E6f,,
{8}2,2,4,4,{16}1x,2x,3x,,{8}7,7,5,5,{16}8x,7x,6x,,{4}34,1b/6b,

1/7-5[8:1],1,14,14,2/8-4[8:1],2,25,25,2-4[8:1]/6,6,57,57,56,3/4w8[4:1],,,
1-5[8:1]/6,6,47,37,2-6[8:1]/8,8,58,47,
{8}12,1h[8:1]/2h[8:1],,,78,7h[8:1]/8h[8:1],,,{4}1-4^6[2:1]/6,7,8bh[2:1],,
B5,B7,3h[4:1],4,{8}A2/B2,A8/B8,A4/B4,A6/B6,{4}1x,1hx[4:1],
B4,B2,6h[4:1],5,{8}7,8,6,1,{2}B4/B5/E5f,
{8}2-4[8:1]b,2,8,8,1-5[8:1]b,1,7,7,2-4[8:1]b,2,6,6,1b,,2b/5b,,
{16}3,4,{4}3h[8:1],{16}5,4,{4}5h[8:1],4<1[2:1]/6,{1}B5f,

1hx[1:1],3h[1:1],5h[1:1],{4}6,,46,28,
{8}1,7,1,7,3,7,1,{16}7b,6,{8}5,3,7,1,7,{16}1b,2,{8}3,8,
2,8,2,8,4,8,2,{16}8b,7,{8}6,2,8,2,{16}8b,7,6,5,{4}4bx/B2/B3/E3f,
{1}1h[4:3],{4}2h[4:1]/8h[4:1],,37,4h[4:1]/6h[4:1],,57,57,{8}4,6,4,5h[4:1],,3,4,,25,,
1,7,3,7,1,{16}7b,6,5h[8:1],,1b,2,{8}3h[8:1],8,2,6,2,{16}6b,7,{8}8h[8:1],2,
3,3,{16}8,7,6h[8:1],,2,,2,,5,6,7h[8:1],,1,2,3,4,5,6,7,8,1,2,3,4,

{1}5b/8b-5-2-7-4-1-6[1:3],,,{4},,,4h[16:1]/5h[16:1],,
3,3h[2:1],B3/B4,,6,6h[2:1],B6/B5,,2,2h[2:1],B2/B1,,7,7h[2:1],B7/B8,,
(146)
1q5[4:1],{16}5V31[4:1]b,6,7,8,{4}1bx,7,6q2[4:1],{16}2V86[4:1]b,3,4,5,{4}6bxV42[4:1],2,
1bh[1:1],,2,2,{8}3,28,17,68,{16}7,1,7,1,{32}8,17,26,35,4,,,,

(292)
{1}1bxs5^8z4[2:5]/2bx,,,{16},,3,4,{4}3,45,56,{2}7h[4:7],,,{4},6,
5hx[4:1]/8hx[4:1],,4hx[4:1]/7hx[4:1],{8},4x/7x,,{16}6,5,{4}6,78,81,
{1}1h[2:1]/2>6[2:1],8h[2:1]/7<3[2:1],1<5[2:1]/2h[2:1],4<8[2:1]/3h[2:1],
{4}47,36,25,36,57,45,24,1/5^8[4:1],8^3[4:1],3,{8}5,5w1[8:1],,A5f/D5/D6,{2},{16}1,8,1,8,{4}1,
{1}2/7<7^5[4:7],,{4}4-1[4:1],4-7[4:1],,,{1}Ch[2:1],
{8}7,8,7,8,6,1,6h[4:1],,3,4,3,4,2,5,2,,13,,48,,57,5-1[4:1]b/7-3[4:1]b,{4},,,2b/8b,37,

{8}4,4,5,5,{16}3,4,3,4,{8}3b,,5,5,4,4,{16}6,5,6,5,{8}6b,,
4,4,5,5,{16}2,4,2,4,{8}2b,,5,5,4,4,{16}7,5,7,5,{8}7b,,
46,,3,35,,6,46,,2,24,,6,46,,3,35,,24,{4}2h[8:1]/4h[8:1],3h[8:1]/5h[8:1],4h[8:1]/6h[8:1],
5h[8:1]/7h[8:1],6h[8:1]/8h[8:1],{8}7x/1x,7x/1x,,
{16}2bx/6bx,3,4,5,6,7,8,1,2,3,4,5,6,7,8,1,2,3,4,5,6,7,8,1,2,3,4,5,6,7,8,1,2,3,
{1}4<1[8:3],{4}27,1-4[8:1]/6^4[8:1],1b/6b,,

{8}2b,2,8-4[8:1],8,{16}3,2,1,,5,6,7,,{8}3,3,5-1[8:1],5,{16}2,3,4,,8,7,6,,
{8}2,2,8-4[8:1],8,{16}3,2,1,,5,6,7,,{8}1,1,7,7,5,4,{4}3/8-4[8:1],
1b/8b,3,{8}2,{4}2-5[8:1],2-7[8:1],2,{8}6,{4}6,78,
12,34,{8}57,5-1[8:1]/7-3[8:1],,5b/7b,,2x,2x/4x,,{16}3,5,{8}3,26,,
7b,7,1-5[8:1],1,{16}6,7,8,,4,3,2,,{8}6,6,4-8[8:1],4,{16}7,6,5,,1,2,3,,
{8}7,7,1-5[8:1],1,{16}6,7,8,,4,3,2,,{8}7,7,1,1,3,3,{4}1-5[8:1]*-6[8:1]/2,
1b,,{8}78,78,,1h[4:1]/2^5[8:1],,2,,8,{4}8,17,56,24,{8}16,1pp4[8:5]/6pp1[8:5],,1b/6b,{1},

{4}2h[4:3],,4,4h[4:3],,5,5h[4:3],,7,7h[4:3],,1,1h[2:1],,3,3h[4:3],,4,4,25,
{8}3h[4:1]/4bh[4:1],,,3bh[4:1]/4h[4:1],,,6h[4:1]/8bh[4:1],,,6bh[4:1]/8h[4:1],,,{4}1b/5,1/5b,
{12}2,3,4,2,3,4,2,3,4,2,3,4,7,6,5,7,6,5,7,6,5,7,6,5,

{1}Ch[1:3],,,{2},1^4[8:1]b/8^5[8:1]b,
{8}3bx/6bx,,7-3[8:1],7,2-6[8:1],2,8-4[8:1],8,1-5[8:1],1,7-3[8:1],7,2-6[8:1],2,8,8,
57,,34,,16,16,,48,,{16}6,5,6,,4,,7,8,{8}7,16,,
7b-4[8:1]b,7,1,1,{16}5,6,7,8h[16:7],2,3,{8}4h[4:1],,,13,,{16}2,13,48,57,{8}6,,
2b-5[8:1]b,2,8,8,{16}4,3,2,1h[16:7],7,6,{8}5h[4:1],,,86,,{16}7,86,51,42,{4}3,
4b/7b,{16}6,5,6,,3,4,{8}3,25,2b/5b,,1b/8b,,3b/7b,3b-8[8:1]/7b-4[8:1],,{4}3b/7b,
1b/5b,26,{8}48,4V27[8:3]/8V63[8:3],,4b/8b,{1},

Ch[2:3],,{4}78,16,2h[4:1]/5h[4:1],,
{16}3,4,3,,5,,3,4,3,,5,,2,4,2,,6,,1,4,{8}1,78,78,,{16}6,5,6,,
4,,6,5,6,,4,,7,5,7,,3,,8,5,8,,2,,7,8,7,,2,1,{8}2,3b/8b,,
4h[4:1]/7h[4:1],,,2h[4:1]/5h[4:1],,,4h[4:1]/6h[4:1],,,2h[4:1]/8h[4:1],,,1,1,8,2,
2,1,{4}3-8[8:1],5-2[8:1],1-6[8:1],7-4[8:1],2-5[8:1],8-3[8:1],1,
{2}1bh[4:1],1bh[4:1],1bh[4:1]/8bh[4:1],{16}1,8,1,8,1,8,1,8,
{24}1bh,2,3,4,5,6,7,8,1,2,3,4,5/8bh,7,6,5,4,3,2,1,8,7,6,5,
4/8bh,1,2,3,4,5,6bx,7,8,1,2,3,{4}45,7/8^1-4^6[4:1]b,{1}8b/E7f,,,,E

Re:MASTER


  • 追加しました。修正等ありましたらよろしくお願いします。 -- けもがみ (2025-10-18 00:16:46)
名前:
コメント:

タグ:

+ タグ編集
  • タグ:
最終更新:2026年02月11日 10:34