アットウィキロゴ

False Amber

アーティスト かめりあ

BPM BASIC ADVANCED EXPERT MASTER Re:MASTER
132 6 9 13 14+ -

EXPERT MASTER Re:MASTER
譜面制作者 ロシェ@ペンギン Safari -

BASIC


ADVANCED


EXPERT

(132)
{8}E2,,,B6,,,B7,,,B3,,,B6,,3xq6[1:1],,{1},{2},
{16}28,,,{8}2hx[16:43]/8x,,4,4,4,{16},{8}5,5,5,{16},{8}3,3,3,{16},
{8}4,4,4,{16},{8}5,5,5,{16},{8}4,4,4,,34,34,,
{16}71,,,{8}7hx[16:43]/1x,,5,5,5,{16},{8}4,4,4,{16},{8}6,6,6,{16},
{8}5,5,5,{16},{8}4,4,4,{16},{8}5,5,5,{16},{8}1x/8x,1x/8x,1x/8x,{16},

2,,2,,13,1/3h[16:3],,,5,,46,4/6h[16:3],,,8,,71,7/1h[16:3],,,3,,24,24,,,4x/5x,,
7,,7,,86,8/6h[16:3],,,4,,53,5/3h[16:3],,,1,,28,28,,,{8}37,47,57,67,
{16}7,,7,,86,8/6h[16:3],,,4,,53,5/3h[16:3],,,1,,28,2/8h[16:3],,,6,,75,75,,,5x/4x,,
2,,2,,13,1/3h[16:3],,,5,,46,4/6h[16:3],,,8,,71,71,,,{8}24,57,{16}6,5,4,3,,
1x/8x,,2,1,2,,34,,6,5,6,,78,,6,5,6,,34,,2,1,2,,34,,
5x<3[16:21]/7hx[16:25],{4},,,{1},{8}4,4,4,{16},{8}5,5,5,{16},{8}6,6,6,{16}4,5,4,5,{4}3x/6x,

{16}1b/6b,,5,5,3h[8:1],,1h[8:1],,8h[8:1],,6,6,4h[8:1],,8,8,4h[8:1],,5,5,3h[8:1],,1,1,3h[8:1],,4,4,
2,,15,,2,4,3,5,4,6,5,7,{8}6-2[8:1],8x,8x-4[8:1],,{2}1w5[8:1],
{16}8b/3b,,4,4,6h[8:1],,8h[8:1],,1h[8:1],,3,3,5h[8:1],,1,1,5h[8:1],,4,4,6h[8:1],,8,8,6h[8:1],,5,5,
7,,84,,7,5,6,4,5,3,4,2,{8}3-7[8:1],1x,1x-5[8:1],,8,8,4b/8b,,

{16}25,,3,4,{8}2-5[8:1],1,8^5[8:1],,1,1,24,{16}3,4,{8}3-6[8:1],1,8<3[16:3],,
5h[2:1],,{16},1x,,8x,{8}8hx[4:3],,6,5,4,3,{2}2-5[8:1]*-6[8:1],
{16}74,,6,5,{8}7-4[8:1],8,1^4[8:1],,8,8,75,{16}6,5,{8}6-3[8:1],8,1>6[16:3],,
4h[2:1],,{16},8x,,1x,{8}1hx[8:7],,{16},B3/E4,,,D5/E5,,,B6/E6,,,D1/E1,,,1x>7[16:5]/2hx[16:11],,,{2},

{8}1b,,,{16}2,2h[8:1],,3,3h[8:1],,4,4h[8:1],,5,5h[8:1],,6,6h[8:1],,8,8h[8:1],,2,2,,4,
{8}B1/B8/E1f,,,{16}7,7h[8:1],,6,6h[8:1],,5,5h[8:1],,4,4h[8:1],,3,3h[8:1],,1,1h[8:1],,7,7,,5,
{8}B8/B1/E1f,,,{16}3,3h[8:1],,4,4h[8:1],,5,5h[8:1],,6,6h[8:1],,7,7h[8:1],,1,1h[8:1],,3,3,,5,
{8}B1/B8/E1f,,,{16}6,6h[8:1],,5,5h[8:1],,4,4h[8:1],,3,3h[8:1],,2,2h[8:1],,8,8h[8:1],,6,6,,4,

{1}1bs5<4[2:3],,{8},1h[8:7],{4},,,
{1}7s3V58[8:9],{2},{16},,,B2,,,B3,,,B6,,,B7,,,B1/B8,,,{8}D5/E5,,,
5x/6x,{16}3,4,3h[16:3],,,2z6>7[16:23],{1},,
{16}4,5,4,5,4,5,4,5,,,2x,2,2,2,,5x,5,5,5,,8x,8,8,8,,4x,4,4,4,,3x,3,3,3,,1x,1,1,1,,2x,2,2,2,,
8x,8x,1x,1x,8x,8x,1x,1x,7w3[16:3],{2},

{16}1b/8b,,7,8,1,2,3,4,5,,78,,6,5,6,5,{8}4h[4:1]/7,8,1,23,
14,58,67,18,{16}2,1,8,7,6,5,,34,,27,27,,2,1,2,1,
3,,7,8,7,8,6,,3,4,3,4,2,5,2,5,{8}1h[8:1],8h[8:1],7h[8:1],6h[8:1],
5,45,{16}3,4,3,,12,,78,,6,5,6,5,{8}E1,E3,E5,E7,

{16}8b/1b,,2,1,8,7,6,5,4,,21,,3,4,3,4,{8}5h[4:1]/2,1,8,76,
85,41,32,81,{16}7,8,1,2,3,4,,5x/7x,,3,2x/4x,,6,7x/5x,,18,
2b/7b,,6,6,4,4,8,,2,2,5,5,1,,7,7,5,5,8,,2,2,4,4,
1,,1x/8x,,7h[16:3]/8,,6,6,,,2h[16:3]/1,,3,3,,,7h[16:3]/8,,6,6>7pp4[16:9]b,,,{1},
{16}2h[1:1]/8,8,,1,1,,8,8,,3,3,,8,8,,4,4,,13,13,,{32}2bx,3x,4x,5x,6x,7x,8x,1x,2x,3x,4x,5x,6x,7x,{2}8x,

{16}3b/8b,,12,,3,4,5h[8:1],,8,,6,5,4h[8:1],,1,,2,2,4,4,5,5,7,7,1,2,3,4,
8b,,78,,6,6,5,5,7,,3,3,4,4,2,,6,6,5,5,7,,68,,1,8,1,8,
2b/7b,,3,3,1,1,4,4,{8}56,78,13,46,17,{16}2,2,4,4,5,5,67,,18,,
2b/4b,,6,6,8,8,5,5,{8}43,21,86,53,82,{16}7,7,5,5,4,4,32,,8x/1x,8x/1x,,
2b/7b,,6,6,5,5,57,,3,3,4,4,42,,7,7,5,5,6,6,64,,3,3,4,4,1x,{16}1xw5[8:1]b,,,{1}1bx,,,,E

MASTER

(132)
{1}4h[2:3]/5<4>5[4:13],{4},{2},B2/E2,{16},B7/E8,{4},Chf[16:7],,,{8},
{16}1bx-4[16:1],,,1bhx[8:23],{2},,,
{8}4,4,{16}5h[16:1],,,{8}4,4,{16}5h[16:1],,,{8}4,4,{16}5h[16:1],,,5,
{48}D6,A6,D7,A7,D8,A8,D1,A1,D2,A2,D3,A3,D4,A4,D5,A5,D6,A6,
{16}A7/D7/E7f,,,2bx/8bhx[16:9],,,,
{8}4,4,{16}5h[16:1],,,{8}47,47,{16}5h[16:1]/7h[2:1],,,
{8}4,4,{16}5h[16:1],,,{8}46,46,{16}5h[16:1]/6h[2:1],,,
{8}4,4,{16}5h[16:1],,,{8}35,46,{16}5h[16:1]/7h[16:1],,,
{8}4b/8b-4[16:1]b,2b/6b,4b/8b,{16},

A2/A3/B2f/B3/D3/E3,,7,7,8,6h[8:1],,1,4,2,2,1,3h[8:1],,
4,4,2,2,8,1x,6,6,4,4,{8}8h[8:1],5b,
A3/A4/D4/E4f/A6/A7/D7/E7,{16}2,2,1,3h[8:1],,8,5,7,7,8,6h[8:1],,
4,4,5,3x,7,1,{8}8hx[8:1],6bh[8:1],4h[8:1],1,
A6/A5/D6/E6f/A3/A2/D3/E3,{16}7,7,8,6h[8:1],,2,5,3,3,4,2h[8:1],,
8,8,1,6,4,5,2,2,1,3,{8}8h[8:1],5b,
A3/A4/D4/E4f/A6/A7/D7/E7,{16}2,2,1,3h[8:1],,8,2,6,6,4,5h[8:1],,
{32}3x,4x,{16}3x,5,2,6,1,7h[8:1],,8b,,1x/7x,1x/7x,,2x/6x,,
{32}3,4,{16}3,5,1,7,4,8h[8:1],,{32}2,1,{16}2,7,1,5h[8:1],,
{32}3,4,{16}3,5,1,7,3,5h[48:7],{24},,2,4,3,7,5,6,1,

{16}8b-5[16:1],,,8bh[8:9],{1},{8},,,
{32}7,5,7,5,{4}7h[32:29],,,{16},,
5,5,6,6,4,4,5-8[16:1]b,3,4,3,{8}5x,,

4b/7b,{24}74,63,52,4/1h[8:1],,,{16}3,3h[8:1],,5,5h[8:1],,7,7h[8:1],,8,8,,{24}1,2,3,5,6,7,
{16}2-8[16:1]/8,,4,4,2-5[16:1],,5,5,2,,6,6,,78,{8}7/8-4[16:1]b,12,48,
{16}3,3h[8:1],,4,{24}2,5,3,{16}4,3,{24}5,2,4,{16}3,4,1,,
5b/2b,,{24}25,36,47,5/8h[8:1],,,{16}6,6h[8:1],,4,4h[8:1],,2,2h[8:1],,1,1,,{24}8,7,6,4,3,2,
{16}7-1[16:1]/1,,5,5,7-4[16:1],,4,4,7,,3,3,,21,{8}2/1-5[16:1]b,87,51,
{16}6,6h[8:1],,5,{24}7,4,6,{16}5,6,{24}4,7,5,{16}6,4,{8}Cf,

1bV35[6:1]/8b,,{16}7,7,,6,{8}6,58,4-1[16:1]/7,
3,{16}4-6[16:1]/8,8,,7,{8}4^1[16:1]b/7,1,4,{32}8,7,6,5,
{16}4b/8b,,,26,26,,3h[8:1],,4,4,1,7,3h[8:1],,
5V31[8:1],,4,6,5b,,7b,7,{8}8,1b/6b,34,
7bV53[8:1]/1b,,{16}8,8,,2,{8}2,41,5-8[16:1]/2,
6,{16}5-3[16:1]/1,1,,2,5^8[16:1]b/2,,8,8,5,,{32}1,2,3,4,
{16}5b/B6/B7/E7f,,,,2,1b/3b,,45,,7,6b/8b,,
5h[8:1]/7h[8:1],,,2h[8:1]/8h[8:1],,,
3h[8:1]/5h[8:1],,,1h[8:1]/7h[8:1],,,
{8}2/6<2[8:1],35,{32}E3,E4,E5,E6,E7,E8,E1,E2,E3,E4,E5,E6,E7,E8,E1,E2,

{8}2bhx[4:1]/5bhx[4:1],,,{32}3,,3,4,3,,5,,5,4,5,,3,,3,4,
3,,5,,5,4,5,,3,,3,4,3,,6,,6,5,6,,3,,3,4,3,,5,,
{8}A2/B2f/D2/D3/E2/E3,,,{32}6,,6,5,6,,4,,4,5,4,,6,,6,5,
6,,4,,4,5,4,,6,,6,5,6,,3,,3,4,3,,6,,6,5,6,,4,,
{8}A7/B7f/D8/D7/E8/E7,,,{32}2,,2,1,2,,8,,8,1,8,,2,,2,1,
2,,8,,8,1,8,,2,,2,1,2,,7,,7,8,7,,2,,2,1,2,,8,,
{8}A3/B3f/D4/D3/E4/E3,,,{32}7,,7,8,7,,1,,1,8,1,,7,,7,8,
7,,1,,1,8,1,,7,,7,8,7,,2,,2,1,2,,7,,7,8,7,,1,,

{64}1bs5^4z8[4:9],28,37,46,{16}A5f/D5/D6,{8},{4},{2},{1},,
{24}7,,,E7,B6,B5,{16}E5,,,3h[16:3],,,2h[16:3],,,1h[16:3],,,
8bhx[2:1],,{24}E1,B1,B2,E3,B3,B4,{16}E5,,6h[16:3],,,7h[16:3],,,5,,,4,,,3/E5,,,4,,,5,,,46,,,
7,,7,,7,5,,{8}5/6h[16:3],5,5,5/7h[16:3],5,{16}5,8,5,8,5,7,5,6h[4:1],5,,5,,5,7,5,6,5,7,,
48,,7,7,5,5,6,6,3,3,4,4,1h[8:1],,{32}7b,8,{16}6,6,6h[8:1],,
{32}2b,1,{16}3,3,3h[8:1],,{32}6b,5,{16}7,7,7h[8:1],,
{32}3b,4,{16}2,2,2h[8:1],,{32}7b,8,{16}6,6,6h[8:1],,
{32}4b,5,{16}3,3,3h[8:1],,{32}5b,4,{16}6,6,6h[48:7],{24},,
3,5,3,5,3,5,4,6,4,6,4,6,5,5,5,5,{8}5b,,1^4[16:1]/7,

6b/8b,{24}4,5,6,7,8,1,2bh[8:1],,,6-2V48[16:5]b,51,48,{8}37,1b/6b,,,{16}1,1,7,7,4^1[16:1],,
5b/6b,,{24}1,8,7,6,5,4,3bh[8:1],,,6^4[16:1]b,7,8,1,2,3,
4/6b,,,8^6[16:1]b,1,2,3,4,5,6/8b,,,1-5[16:1]b,8,7,6,5,4,
{4}3/1b,{16}7,7-4[16:1],1,6,1,7b,,{16}2,2^5[16:1]b,1,3,6,2bw6[16:1]b,8b,,,{8}2b,,
78,56,{24}3,4,2,{8}5h[8:1],1h[8:1],{24}8,2,7,{8}5h[8:1],4h[8:1],{24}3,5,2,{8}4,17,8^5[16:1],
3b/1b,{24}5,4,3,2,1,8,7bh[8:1],,,3-7V51[16:5]b,48,51,{8}62,8b/3b,,,{16}8,8,2,2,5^8[16:1],,
4b/3b,,{24}8,1,2,3,4,5,6bh[8:1],,,{16}2-6[16:1]b,,8,8-4[16:1]b,
2b,5b,,8b,,,1b,,{24}1-6[16:1]/5-2[16:1],26,37,48,,,
{4}1b/5b,{16}2,2-5[16:1],8,3,6,2b,,{16}7,7^4[16:1]b,8,6,3,7bw3[16:1]b,1b,,,{8}7b,,
28,46,1/2^5[16:1],38,{24}1-5[16:1]/2,8,7,6,,,15,6,7,{16}8,,48,,
12,1b/2b,,78,7b/8b,,25,2bh[8:1]/5b,,,{32}6,5,4,3,2,1,8,7,

{8}1bhx[4:1]/6bhx[4:1],,,{32}2,,2,4,3,,6,,6,4,5,,2,,2,4,
3,,7,,7,5,6,,3,,3,5,4,,6,,6,8,7,,3,,3,1,2,,7,,
1,8,1,8,1,8,1,8,1,8,1,8,1h,2x,7b,6x,1,2x,7b,6x,2,3x,8b,7x,3,4x,8,7x,

{4}Cf,{16}7-3[16:1],8,6,8,7,,1,,24,,3^8[16:1]b,5,4,6,3,,7,7,1,8,2,2,4,3,
2b/5b,,18,,7,1,8-4[16:1],2,7,1,A8f,,3b,,12,3b/8b,,78,1b/6b,,{24}2,4,3,6,4,5,{8}1bh[8:1],8,
57,1b-5[16:1]/8,{16}2,2,1/8b-4[16:1],,6,,8/2b-6[16:1],,3,3,
2/7b-3[16:1],,8,,7/2b-5[16:1],,1,1,{8}2/6b-1[16:1],8,2b/6,
38,1b/7b-1[16:1],{16}5,4,3b-5[16:1]/7b,,2,,3b/8b-4[16:1],,6,7,
{8}8b/1b,1,3b/5b,{32}7,5,7,5,7,,2,4,2,4,{16}2,18,18,,
{32}2,4,{16}3,3,3,3,3,2b/4b,,{32}7,8,{16}6,6,6,5b/7b,,
{32}2,1,{16}3,3,3,3,3,2b/4b,,{24}1,5,2,5,3,5,4,{48}5,
4b/6b,37,28,1,,,,,,7b/8b,1b/6b,2b/5b,{1}3b/4b,,,,E

Re:MASTER


  • 追加しました。修正等ありましたらよろしくお願いします。 -- けもがみ (2025-10-30 16:00:54)
  • EXPERTを追加しました。修正等ありましたらよろしくお願いします。 -- けもがみ (2026-03-12 05:57:34)
名前:
コメント:

タグ:

+ タグ編集
  • タグ:
最終更新:2026年04月09日 19:49