アットウィキロゴ

Amereistr

アーティスト rN

BPM BASIC ADVANCED EXPERT MASTER Re:MASTER
147 5 8 12 13+ -

EXPERT MASTER Re:MASTER
譜面制作者 サファ太 Jack -

BASIC


ADVANCED


EXPERT

(147)
{1}E3/Chf[1:1],1h[1:8],{1}2h[3:2],3h[3:2],4h[3:2],5b,E5,Ch[1:1],{2},E1,8bxh[1:7],7,7,6,6,5,5,6,5bxh[2:1],{6},{48},5,,,{4},6h[2:1],,{6},{48},6,,,{4},7h[2:1],,{6},{48},7,,,{4},{2}6bxh[6:19],{6}7,7,7b-2-6-3-5b[1:1],{1},,
{6}4bx,4bxh[1:1],,E8f/B8/B7,,,5,5h[2:1],,2,2h[2:1],,3,3h[1:1],,E3f/B2/B3,,,1,1h[2:1],,4,4h[2:1],,2bx,2bxh[3:22],,3,3,3,3,,,4,4,4,4,,,5,5,5,{1}5h[2:1],{2}4bxh[6:1],3h[6:1],1h[6:1],1h[6:1],3h[6:1],1h[6:1],3h[6:1],5bxh[1:4],{6}3,3,,4h[6:1],,,3,3,,2h[6:1],,,2,2,,3h[6:1],,,4,4,,{2}6bxh[1:10],
7x<4[4:1],{4},4bx-8[4:1],,,8-3[4:1],,,3bx-8[4:1],,,8-3-5[2:1],,,{8},B6f,{2},{4},7-2-5[2:1],,{8},,,E5/B5f/E6,{4},,,E7,E6,E5,Chf[8:5],,,{2},{8},{4}E1,E8,E7,{8}5bx,{2}5bxh[8:59],{4},{8},Ch[4:3],{1},{2},{8},,,
(73.5){2}8-5-2-8[8:5],,7h[4:1],7h[4:1],8h[2:9],E5,E6,{4}E7,C,E5,C,{2}1h[4:1],Ch[4:1],B7/Ch[4:1],E7/B6/B7/Cfh[4:1],
(147){6}6xh[1:1],7,,,7,,5bh[1:1],6,6,,7b,,{16}8h[16:3],,,7h[16:45],{4},{20}6,,,6,,,6,,6x,6x,{2}6bxh[4:1],{10}5,5,5,5,5,{6}5h[6:1],,,,4h[24:1],,6bh[6:1],5h[6:5],,{24},7,,,,7,,,,7,,,{21}7h[21:3],,,{14}6h[42:43],,,,,{28}4,,,,,4h[28:5],,,,,,,4x,,{6}4bxh[48:105],,,{14}7,7,7,7,7,7,7,{6}7,7bx-3-6[12:5],,,,,8b,7h[6:11],,6,6,8,8,8-5-8[6:2],,,,,8bh[1:2],,,{22}4,,4,,4,,4,,4,,4-7-4[24:9],{1},{6}5bh[26:57],4,4,,3,,{7}4,4<6-2[14:5],,,,,,{26}3b,,,,,3h[26:229],,,,,,,,{2}Cfh[2:1],
{6},,,{24},8-2-7-3-6-4[1:1],,{1},{8},,,{16}1b,,,1b>4b[3:1],{4},,,4b,2,{10}1,1,1,1,1,{1}1bqq1b[2:1],{1}1b-7q5b[24:11],{14}5,,,5bqq4b[3:1],,,,{2},5bp4b[2:1],,
{6}4h[6:1],2h[6:5],3,3,3,3,4bh[1:1],3,3,3,E4/B4,,5h[6:1],6h[24:23],7,7,7,5,{2}5bh[1:1],{14}8,8,8,8,8,8,8,{6}8h[6:1],6h[24:23],,7h[6:1],,,5bh[7:8],,,{14}3,3,3,3,3,3,3,{7}3,3xh[24:25],,{14},1,,1,,1,,1,{2}1bxh[1:1],Cfh[1:3],,{1}1bz5s1b[4:7],,,E

MASTER

(73.5)
{2}Ch[2:1],
{12}8h[4:1],2h[3:1],,,6h[4:1],,
{12}4-8[24:5],5h[12:5],,,,,
{12}7h[4:1],
{48},1h[48:11],,,
{12},,3h[12:1],4h[12:1],
{12}6h[3:1],2h[3:1],,,,4h[108:19],
{12}3<6[6:1],
{108},2,,,,,,,,
{12}7,3h[6:1],,,
{32}3/7v6-4[24:5],,,3h[32:5]/7,,,,,
{12},4,3,
{12}2v3-5[24:5]/6,
{108},2/6h[32:5],,,,,,,,
{12},,5,6,
{12}3/7s3[6:1],3h[12:1]/7,,7h[6:1],,,

{12}37,3h[12:1]/7,7,3h[12:1]/8,8,38,
{12}47,4h[12:1]/7,7,46,46,
{48}46,,3,5,4,,,,
{108}5,3h[27:2],,,,,,,,
{12}5,34,
{108}4,3,,,,,,,,4,,3,,,,5,,,
{12}4,4h[12:1]/6,7,
{96}
48,,,,,,
4,,7,,,,
4,,,,6,,
4,,,5,,,
{12}3,3/5h[12:1],3,
{24}25,,25,,25,5,
{12}1,1/6h[12:1],1,
{12}68,16,
{96}26,,,,3,,5,,
{12}4,
{108}3,5h[27:2],,,,,,,,
{12}3,45,
{108}4,5,,,,,,,,6,,4,,,5,,,,
{12}3,2/6h[12:1],1,
{192}
26,,,,,,,,,,,,6,,,,
3,,,,,,,,6,,,,,,,,
4,6,,,,,,,,,6,,,,,,
{112}
5b,,,,,,,7,
4b,,,,,,7,,
3b,,,,,7,,,
2b,,,,7,,,,
1b,,,7,,,,,
8b,,7,,,,,,
6b,7,,,,,,,
{20}5h[20:1],6h[20:1],5h[20:1],6h[20:1],5h[20:1],
{20}4h[20:1],3h[20:1],4h[20:1],3h[20:1],4h[20:1],

{12}5bw1[16:1],5b,,Cf,,,
{12}2x/8x,2x/8x,,
{48}7,,,,6,,,,5,,3,3,
{12}4bw8[16:1],4b,,Cf,,,
{12}1x/7x,1x/7x,,
{48}28,,,,1,,1,,1,,7,7,
{12}8bw4[16:1],8b,,Cf,,,
{12}3x/5x,3x/5x,,
{48}2,,,,6,,,,4,,8,8,
{12}2b-6[16:1],2b,,
{24}Cf,,8,18,,,
{12}24,
{72}4,5,,,,,
{48}5/7b,,,,6,,,,45,,,3,4,2b,6,5,
{12}7,18,2x,3h[12:1],4h[12:1],5h[12:1],
{24}6h[12:1],,5,5,,,
{12}7xh[16:1],5h[24:1]/6,3/4h[24:1],2h[12:1],
{12}4,,3xh[12:1],4h[12:1],5h[12:1],6h[12:1],
{108},5,,,,,,,,
{12},6x,
{96}1h[27:2],8h[27:2],,,,,,,
{48},3,5h[96:1],4,
{12}6pp5[24:5],3,1b,2,
{108},2,,,,,,,,
{36},,3,
{12}3qq2-4[24:5]/4,
{108},6,,,,,,,,
{24}8b,,7,,,7,,
{96},6,,,
{12}56,45,3bh[12:1]/4,
{24}A2,,E1,4,A7,,
{12}5,46,,1b>4[16:1]b/5b<8[16:1]b,4h[27:2]/8h[27:2],,

(147)
{8},,,
{16}26,,4-1[8:3],3,,,
{8}4/5b,,,
{24}7,8,,
{16}7,,6,5,
{2}5/7h[2:1],
{16}5-8[8:3],6,4,,
{8}4b/5,,,
{24}2,1,,
{32}2,,,,8,7,6,5,
{2}3/4h[2:1],
{16}3,,56,,7,7,
{48}5bh[6:1],,,,,,,,
{54}6,4h[48:7],,,,,,,,
{48}5,,3h[8:1],,,,,,
{48}4,,,,,,3,,,,,,5,,4,,5,4,
{2}6h[2:1],
{16}5,,6,,7,7,
{32}1b,2,3,4,5h[16:5],,,6h[32:3],,,,,,,
{16}7,,,8q1[32:13],1,,,
{2}1b/8b,
{8}2h[16:3],4h[32:3],
{16}5h[32:5],,7h[8:1],,5,6,4q5[32:13],5,3,4,
{2}2b,
{32}2,,2,,8,7,6,5,
{8}3h[24:5]/4h[24:5],,34,1h[24:1]/8h[24:1],
{24}6,4,5,3,,4,,5,,
{8}6b>3-7>2-6[8:13],,,,,,,
{1}Ch[1:1],,

(73.5)
{12}
8,E5,D4,7,E4,D3,
6,E3,D2,5,E2,D1,
4,E1,D8,3,E8,D7,
2,E7,D6,1,E6,D5,
{2}8,
{12}1h[2:1],E3,E4,E5,E6,E7,
{12}8h[2:1],D7,D6,D5,D4,D3,
{4}1-7v5-3[4:1],3<8[4:1],8>4[4:1],4<7[4:1],
{2}7>4[2:1],4<8[2:1],8>3[4:3],Chf[2:1],

{24},,1,1h[8:1],,,7h[8:1],,5,5h[8:1],,,
{24}6bh[8:1],,5,4h[8:1],
{24}5,,5h[8:1],,3h[12:1],,4h[12:1],,
{32}2,,,5bh[160:49]/7b,,,,,
{40}6,,,6,,,6,,4,4,
{8}5b,24,
{20}1v6>3[6:1],2,8,2,8,
{24}7b,,8,8h[8:1],,,2h[8:1],,4,4h[8:1],,,
{48}3bh[8:1],,,,4,,5h[8:1],,,,,,4,6h[12:1],,,,
{48}5,7h[16:1],,,5h[16:1],,,
{56}7,,,,2b/4bh[28:5],,,,,,,,,,
{56}3,,,,,3,,,,,3,7,6,5,
{16}1b,34,,,
{28}8-5>4-1[24:5],2,7,2,7,2,7,
{12}1bh[12:1],,,A2,E3,E4,
{12}A4/6b,56,,A7/3,E7/3,E6/3,A5/3,
{108}3,4,,,,,,,,
{12}2,
{20}7,5h[40:1],6,3,4h[40:1],
{16}2b,18,,,
{44}3h[22:1]/4,,2h[22:1],,1h[22:1],,8h[22:1],,7h[22:1],,6h[44:1],
{24}5,,5,7,,,
{16}8,5,1,,
{12}2/6b,4,4,
{48}3h[12:1],,,,4,,,,,
{32}7,5,
{28}6,,48,,,,,
{112}34,,,,,,,,15,,,,,,,,5,,,,,
{32}4,6,3b/7,,,2,,,5,4,
{52}5,,3,,3,,7,6,5,4,1,2,3,
{24}A8f/4b,,5,A7,,,A6,,4,A5,,,
{24}A4f/6b,,5,A3,5,,A2,,4,A1,,,
{32}Chf[32:3],,,8b,,,,,
{40}1,,,2,,,3,,4,6,
{8}3b/7x,5x/6,
{40}3/4x,,4,,4,2x,5,,5,,
{24}A1f/5b,,4,A2,,,A3,,5,A4,,,
{24}A5f/3b,,3,A6,,,
{48}A7,5,,,,4,A8,,,3,,,
{28}Chf[28:3],,,1b,,,,8,,7,,6,,5,
{28}3b/4b,2h[28:6],,,,,,
{56}4,,3,,5,,4,,6,7,8,1,2,3,
{12}4^7[16:1],3,2,1^4[16:1],8,7,
{12}6^1[16:1],5,4,3,2,12,78,
{108}1bh[12:1],8bh[27:2],,,,,,,,
{12},
{20}37,6,5,4,3,
{16}26,26,,,
{28}1-4[16:1],7,5-8[16:1],6,3,4,2,
{4},
{16}3,24,1,8,
{12}7bh[6:1],6,6,
{60}5,,,6,,4,7,,,8,,,1,,,
{28}2h[14:1],,3,,,,,
{28}4/8x,7,6x,5,4x,3,2x,
{4}1bh[384:37]/5<4[4:1],Ch[4:1],,

{120}
1bh[1:0]/8x,,,,,,,,,,
7b,,8,,,7x,,,,,
2bh[1:0],,,,1,,,,,,
5x/6b,,,,,,3,,,,
4bh[1:0],,,,,2x,,,7,,
5b,,,,,,,,,,
{840}
1bh[1:0]/8x,,,,,,,,,,,,,,,,,,,,,,,,,,,,,,
,,,,,,,,,,,,,,,,,,,,,,,,,,,,,,
7b,,,,,,,,,,,,,,,,,,,,,,,,5,,,,,,
,,,,,,,,,,,,,,,6x,,,,,,,,,,,,,,,
2b,,,,,,,,,,,,,,,,,,,,4h[1:0],,,,,,,,,,
,,,,,,,,,,,,,,,,,,3,,,,,,,,,,,,
5b,,,,,,,,,,,,,,,,,,,,,,,,,,,,,,
4x,,,,,,,,,,,,,,,,,,,,,,,,,,,,,,
6b,,,,,,,,,,,,5,,,,,,,,,,,,,,,,,,
,,,,,,,,,,7h[1:0],,,,,,,,,,,,,,,,,,,,
2b,,,,,,,,,,,,,,,8x,,,,,,,,,,,,,,,
,,,,,,1,,,,,,,,,,,,,,,,,,,,,,,,
7b,,,,,,,,,,,,,,,,,,,,,,,,,,,,,,
,,,,,,,,,,,,,,,,,,,,,,,,,,,,,,
{1}Cf/B3/E3/B4/E4/B5/E5/B6/E6/E7,,E

Re:MASTER


  • 追加しました、 -- やあきまあゆうう (2025-11-04 11:16:27)
  • 11-04日二追加しましたが、譜面が間違ってるところがあったので修正しました -- やあきましゅう (2025-11-26 17:33:17)
  • EXPERT追加しました -- paru (2026-01-18 22:36:13)
名前:
コメント:

タグ:

+ タグ編集
  • タグ:
最終更新:2026年04月09日 01:08