アットウィキロゴ

ミクマリ

アーティスト テヅカ

BPM BASIC ADVANCED EXPERT MASTER Re:MASTER
174 4 7+ 10+ 13 -

EXPERT MASTER Re:MASTER
譜面制作者 はっぴー アマリリス -

BASIC


ADVANCED


EXPERT


MASTER

(174){1}
3h[2:1]/7h[2:3],5h[2:3],4h[2:3],2h[2:3],
8h[2:3],6h[2:3],4h[8:15],{8},,,{1}5xh[1:1],
{16}4,,,5,,,4,,,5,
{8},4,,4x/5x,,,5/6-2[8:1],,

4,,3,3,,2,2^3-5[4:1]/4,,,6h[8:3],,,5,,56,,
3/4h[4:1],,2,2,,35,3/5^8[4:1],,4,4,,5,5h[4:1]/8,,7,,
57,,45,45,,2,2h[4:1],,4-6[8:1],,2-4[8:1],,7h[4:1],,5,,
56,,24,24,,{16}3,4,3,,45,,56,,7,8,7,,1h[8:3],,{4},A5/E5/E6,
24,{16}2,,18,,,,7,8,7,,6h[4:1],,,,7,,8,,18,,2,1,{8}2,3h[4:1],,
2,1,8,17,,2-6[8:1],,28,,{16}7,8,7,,2,1,2,,34,,2x/5x,,3,,
34,,7,8,7x,,6,,56,,2,1,2x,,3,,34,,7x,8,7,,4x,5,{8}4,3x/6x,2x/7x,1x/8x,
,7x/8x,1x/2x,3x/4x,5x/6x,7x/8x,1x/2x,3x/4x,5bx/6bx,,,37,3h[4:1],1x,1x,,
34,34,,12,3,45,6,1/8-4[8:1],,3,3,,1b/7b,,,,

35,,6h[16:3],{16},5,,6,5,,7h[16:3],,,5,,7,5,,6h[16:3],,,5,,6,5,,47,,,,
35,,,,3h[16:3],,,4,,3,{8}4,2,,24,24,3,3-7[8:1],,5,5,,
56,,7h[16:3],{16},8,,7,8,,6h[16:3],,,8,,6,8,,5h[16:3],,,8,,5,8,,48,,,,
14,,2,,2h[16:3],,,1,,2,{8}1,2,38,7,7w3[8:1],,7,,15,1b/5b,,
{2}2^5[2:1],5^8[2:1],8q4[2:1],4qq1[1:1],
,1V38[4:3],4-7[4:1],{8},,78,,
5-2[8:1]/6,56,,,4-7[8:1],34,,,5-2[8:1],56,,,4-7[8:1],34,{12}2x,2x,2x,
{4}8-6[16:1],2-4[8:1]/8,1-5[8:1]/2,1/4x<3[2:1],Cf,,8h[4:3],,
6h[4:1],{8},5h[4:1]/7h[4:1],,,4h[4:1]/6h[4:1],,,5h[4:1]/7h[4:1],,,6^3[8:1]/8p4[8:1],,,,
3x/4x,,15,26,37,48,15,48,3bx/7bx,,1b/8b,,{2}Cf/B3/B4/B5/B6,

{2}3h[2:5],D5/E5,D4/E4,D3/E3,D2/E2,D3/E3,D2/D4/E2/E4,D1/D5/E1/E5,
6h[2:5]/D8/E8,D7/E7,D6/E6,D5/E5,D4/E4,2<6[2:1],6>2[2:1],8,
{8}37,,57,,6/7h[4:1],,8,8,{4}8q6[4:1],6,7,78,
18,12,3/4^7[4:1],1,{16}8h[16:3],,,7h[16:3],,,5,,
{4}5,3x/7x,3/5h[4:1],8x,4h[4:1]/6,1x,{8}5h[4:1],8x,4h[4:1],1x,5h[4:1],8x,1x,1x>7[8:3],
,6x,7x,8x,1x,1xh[4:1],8x,8bx,,12,1-5[8:1]/2-6[8:1],,12,,4b/7b,,

6-2[8:1],5-3[8:1],6-8[8:1],5-1[8:1],6,5,7,{16}2,3,4,,7,6,5,,3,4,{8}5-1[8:1]/7,,1,,
8,8,2h[2:1],3,4,5,6h[2:1],7,8x,{32}D1,A1,D2,A2,D3,,,,D6,A5,D5,A4,{8}D4,1x,1x,,
37,37,{16}6,4,5,3,4h[16:3],,,3,3,,24,,1-5[8:1],4,1x,,6,,7x,,8-4[8:1],5,8,,4,,,,
3x/4x,,2,1,2x,,7x,8,7x,,2x,1,3x,,28,,{24}1,8,7,6,5,4,{16}3,,,,27,,8x,1x,{8}8x,,
3-7[8:1],4-6[8:1],3-1[8:1],4-8[8:1],3,4,2,{16}7,6,5,,2,3,4,,6,5,{8}2/4h[4:1],8x,8x,,
24,3,46,5,6^3[8:1],4,{24}2,1,8,{8}7,3bx/7bx,{32}A4/A8,D1/D5,A1/A5,D2/D6,{8}A2/A6,,7h[4:1],8bx,8bx,,
56,34,{16}2,8,1,7,8,,78,,16,,25,,3,4,2,4,1,,6,5,7,5,8,,2-5[8:1],1,3,8,
2x,,,,6x,5,6x,5,7x,5,8x,5,1x,5,2x,,{24}2,1,8,7,6,5,{8}4,4x/8x,4x-7b[8:1]/8x-3b[8:1],,4x/8x,,
2-4[8:1],5,2-8[8:1],6,2v5[8:1],7,2<3[2:1],8,2x,,E7,,E5,,24,,
1-7[8:1],1,6-2[8:1],6,3-5[8:1],3,8-2-6-4[2:1],8,E4,,B7,,A1/E1/E2,,2x/6x,,
7-3[8:1],{16}3,3,7^2[8:1],,2,2,7^4[8:1],,4,4,{8}7,,3,3x/4x,,1x/5x,1x-3[8:1]/5x-7[8:1],,15,,
48,37,2x/6x,1x/5x-1[8:1],,3-7[8:1]/5x,,3x,,1h[4:1],,8,{4}A2/A7/E1f/E2/E8/B1/B2/B7/B8,,

1xh[2:3]/7x<3[2:1],,,,2q3[2:1],,,2xh[2:1],
3,3-6[8:1],13,,7h[4:1],6-3[8:1],{16}68,,7x,7x,{8}7x,,
26,1,7,18,2-5[8:1],1-6[8:1],2,1,3,3,7,7,1,1,25,{16}2,4,
3x,,7,5,{8}6x,4x/5x,3x/4x,2x/3x,1x/2x,1bxs5b[8:1]/8bxz4b[8:1],
,1b/8b,,3b/6b,{2}3bh[4:1]/6bh[4:1],
4h[2:1],3h[2:1],2h[2:1],1h[8:19],3p6[2:1],,8xh[8:7],,,,E

Re:MASTER


名前:
コメント:

タグ:

+ タグ編集
  • タグ:
最終更新:2026年04月12日 09:28