| アーティスト |
satella feat.Risa Yuzuki |
BASIC
ADVANCED
EXPERT
MASTER
(184){4},,,{16}1,2,34,5,{4}6h[8:1],6h[8:1]/4-1[4:1],6h[8:1],6h[8:1],6h[8:1]/1,6h[8:1]/1>4[4:1],6h[8:1],6h[8:1],6h[8:1]/4,6h[8:1]/4p8[4:1],6h[8:1],6h[8:1],6h[8:1]/7,6h[8:1]/7>2[4:1],6h[8:1],6h[8:1],3h[8:1]/5,3h[8:1]/5v8[4:1],3h[8:1],3h[8:1],3h[8:1]/8,3h[8:1]/8<5[4:1],3h[8:1],3h[8:1],3h[8:1]/5,3h[8:1]/5-1[4:1],3h[8:1],3h[8:1],3h[8:1]/1,3h[8:1]/1p5[4:1],3h[8:1],3h[8:1],3qq2[4:1],5,6pp7[4:1],5,4qq3[4:1],5,5pp6[4:1],4,{1}4>5[1:1],{2},{12}6,7,8,2,3,4,E6f,,6,6,5,8,6,,3,3,4,1,5-1[8:1],,5,3-6[8:1],,3,7-1[8:1],,7,5,,,46,,3,3,4,1,3,,6,6,5,8,4-8[8:1],,4,6-3[8:1],,6,2-7[8:1],,2,5,,,8h[1:2],,,,E8,E7,E6,,,,E2,E3,E4,,,,E1,C,E5,,,{4},{6}2,1>8[6:5],1h[6:7],{2},{1},
{4}E3,E2,E1,E8,E7,,D8,B7,E1,B2,D2,,B3,B4,B5,B6,Ch[2:1],,,,E1,,A8/A1,A2/A7,A3/A6,A4/A5/D5,D3/D7,D2/D8,{2}1xh[4:3],8xh[4:1],{12}1b/8b,,2,2<7[8:1],4,4,3h[4:1],,,1x,,,8,8,8,17,,,2,4,3,7,5,6,6,,7,7>2[8:1],5,5,6h[4:1],,,8x,,,1,1,1,82,,,6,5,7,3,4,2,24,,,3<6[8:1],1,1,3-8[8:1]/2h[4:1],,,3,,,6,6,6,57,,,3,1,2,6,8,7,7,,6,6>3[8:1],8,8,7h[4:1]/6-1[8:1],,,6,,,2>5[8:1]/8<5[8:1],1,1,,,,1>4[8:1]/7<4[8:1],8,8,{4},{1}Ch[1:4]/B2/B6,{12}E8,,,D1,A8,D8,A7,D7,A6,D6,A5,D5,{1}A4,{12}E2,,,D1,A1,D2,A2,D3,A3,D4,A4,D5,{4}A5,8x,,{12}8x,,4,{4}6,1x,,{12}1x,,5,3,,3,4,2,3,1,,6,5,7,6,8,8,8,17,,35,35,,4,4,6,2,
8<5[8:1],,3,8>3[8:1],,4,8<5[8:1],,5,84,3,2,1>4[8:1],,6,1<6[8:1],,5,1>4[8:1],,4,15,6,7,8<5[8:1],,3,8>3[8:1],,4,8<5[8:1],,5,4-8[8:1],3,2,{4}1-5[8:1],1>4[8:1]*<6[8:1],1,3b/7b,4V28[4:1]/6,{12}5,5,5,5V71[4:1],,,4,4,4,4V28[4:1],,,5,5,5,5V71[4:1],,,4,,,3,,,3-8[8:1]*-7[8:1],4,2,,,,6-1[8:1]*-2[8:1],5,7,,,,3>5[4:1]*p5[4:1],4,2,{4}3b,,{12}56,,7,8p3[8:1]*<4[8:1],7,,8x,,,2x/5x,,,43,,2,1q6[8:1]*>5[8:1],2,,1x,,,7x/4x,,,{4}5-1[8:1]/6-1[8:1],56,3-8[8:1]/4-8[8:1],34,{12}6,5,7,2,4,3,7,5,6,3,4,1,1>5[4:1],,7,7,,,1<5[4:1],,3,3,,,1>5[4:1],,7,7,,,{2}1b,{16}3b,5,3,5,3,4,3,4,3x,2,3,4,3x,2,3,4,3x,5,3,5,3,4,3,4,3x,2,3,1,3,1,3,,6b,4,6,4,6,5,6,5,6x,7,6,5,6x,7,6,5,6x,4,6,4,6,5,6,5,6x,7,6,8,6x,1,6,2,{4}6x-1[8:1],6/3-8[8:1],3/7-4[8:1],7/1-6[8:1],1/5v8[8:1],{12}57,,6,7,8,1,2,3,4,{1}1h[4:7]/5h[4:7],,
{4}A2,E3,E4,A4,8h[1:1]/A2,E3,E4,A4,A2,E3/7-1[8:1],E4,A4/8,A2/8,E3/8<5[8:1],E4,A4/7,A2/6,E3/5-8[4:1],E4,A4,A2/8-5[4:1],E3,E4,A4,A2/5h[4:3],E3,E4,A4,A2/5v8[4:1],E3,E4,A4,A7/2,E7/2,E6/1,A5/1,A7/1h[4:1],E7,E6/2,A5/2,A7/1,E7/1>4[8:1],E6,A5,A7/4,E7,E6/4qq1[4:5],A5,A7,E7,E6,A5,A7,E7,E6/2,A5/2,A7/1,E7/1>4[8:1],E6,A5/2,A7/3,E7/4-1[4:1],E6,A5,{1}2h[4:3]/8h[4:3],{4}6/4h[4:3],{12}5,6,7,8,1,2,3,4,5,{1}4h[4:3]/6h[4:3],{4}2h[4:3]/8,{12}1,8,7,6,5,4,3,2,1,8-4[8:1],,8,3,,,1-5[8:1],,1,5,,,6-2[8:1],,6,4,,,3-7[8:1],,3,7,,,8<4[4:1],,8,3,,,2,,,1,,,1>5[4:1],,1,7,,,{2}8h[1:1],{12}5-2[8:1],5,5,{4}5-1[8:1],5-8[8:1],35,{16}2,1,2,1,3,4,3,4,5,6,7,8,5,4,3,2,7,8,7,8,6,5,6,5,4,3,2,1,4,5,6,7,3,4,3,4,2,1,2,1,8,7,6,5,8,1,2,3,6,5,6,5,7,8,7,8,1,2,3,4,1,8,7,6,{12}2-6[8:1],2,2,7,7,7,8-4[8:1],8,8,2,2,2,1-5[8:1],1,1,6,6,6,7-3[8:1],7,7,3,,,2,2,4,3,3,4,2,2,4,1,1,4,24,24,,45,45,,57,57,,18,18,,7,7,5,6,6,5,7,7,5,8,8,5,24,24,,57,57,,54,53,52,51,5/8>7[12:14],57,{1}5/6b,,
{4}1,1v3-5[2:1],,,8,8v6-4[2:1],,,1,1pp3<5[2:1],,,8,8qq6>4[2:1],,,1,1>5[4:1],,,8,8V64[4:1],3,2h[4:1],{12}4b-1[8:1],5,6,7,7,6,5v8[8:1],4,3,2>4[8:1]b/5<7[8:1]b,1,1,{1}2b/5b,E
Re:MASTER
- 2025/12/27追加しました,,間違ってないと信じて、、 -- やあきましゅう (2025-12-19 19:47:42)
- 終盤のE6,E5,→E7,E6,、4-7[8:1],,4,7,,,→3-7[8:1],,3,7,,,、3,,,→2,,,に修正しました。 -- けもがみ (2026-01-02 10:31:13)
最終更新:2026年03月29日 13:14