BASIC
ADVANCED
EXPERT
(185){1},
{1}3h[8:7]/4p7[8:5],,6h[8:7]/5q2[8:5],{8},,,3x/5x,,,,,3h[8:3],,,4,,,45,,6h[8:3],,,5,,,{4}4qq2[4:3]/5pp7[4:3],,,,,,,18,1b/8b,7,78,6,65,3,34,{8}2,2,{4}1,2,12,3,45,6,78,{8}1,1,,{4}2h[2:1],1,7h[2:1],8,3h[2:1],1,6h[4:1],8<1[8:5],,,,,18,2-5[8:1]/7-4[8:1],,{8},
{4},3,3h[4:6],,4,,2,,4,6,6h[4:6],,5,,7,,5V31[2:1],,,,1/4V68[2:1],,,,85,7h[4:1]/4h[4:1],,2h[4:1]/5h[4:1],,{8}3,3,5,5,{4}1b,,6,78,1,82,3,34,{8}3,3,{4}4,3,12,8,17,6,56,{8}6,6,{4}5,{8}4bxh[4:1]/6bxh[4:1],,,3bxh[4:1]/7bxh[4:1],,,8bx/2bx,,{4}1bxw5[4:1]b,,,4bx/6bx,7h[4:1],5h[4:1],4h[4:1],2h[4:1],8,45,2b/6b,,3<6[4:1],,7-3[4:1],,1-5[4:1],,8b,8b,7>2[4:1],,3-7[4:1],,5-1[4:1],,2b,2b,{8}2h[4:1],,4,4,,,35,,7h[4:1],,5,5q6<4[8:13],{1},,{4},56,8b/3bh[4:1],{8}1,1,,28,28,,6h[4:1],,8,8,,17,17,,2h[4:1],,4,4,,35,,18,,37,37,,2,{4}2h[4:1],4bx,12,34,5/6-3[2:1]b*>3[2:1]b,,,,{8}2,2,1,,7,7,8,,1pp4[8:7]/8qq5[8:7],,,{1},{8}3x/4x,,7b/8b,78,,1,1,,3h[4:1],,1,1,,28,28,,17,,82,2pp2[8:5]b/8qq8[8:5]b,{1},{8}1,{4}1,12,34,56,78,12,34,25,{8}6,6,75,,3,3,24,,1,8,2bpp4[8:3]/7bqq5[8:3],{4},,,36,{1}6x/3x-7>2-5[4:5],,6>4q8v3[4:5],,2z6>4p8[4:5],,7-4>1z5[4:5],,{4}2xh[1:2],,B3/B4,,B1,C,B4,,7h[4:6],,B5/B6,,B8,C,B5,,2h[2:1],1,7h[2:1],8,3h[2:1],1,6h[4:1],8,1h[4:1]/7h[4:1],,2h[4:1]/8h[4:1],,75,24,36,1b/8b,7<4[4:1],,3-7[4:1],,6,6,78,78,1q5[4:1],,6-2[4:1],,3,3,12,12,{8}2h[4:1],,8,8,,17,17,,6h[4:1],,8,8q1>7[8:13],,,{1},,{4}18,{2}3bh[1:1]/6b,,4h[1:1],,5h[1:1],,6h[2:1],{8}5,,,4h[4:1]/6h[4:1],,{4},5h[4:1]/3h[4:1],,7h[4:1]/4h[4:1],,2h[4:1]/5h[4:1],{8},25,,{1}Chf[8:7],{2},{8},,,Cf/B6/B3,{2},{4},1x/8x,8b/7bh[4:1],{8}5,5,,84,84,,1/2h[4:1],,4,4,,15,15,,8/6h[4:1],,5,5,,34,,18,,37,37,,6,6h[4:1],,{4}5bx,24,18,7p2[4:2]b/3<6[4:2]b,,,,{8}1,1,82,,7,7,86,,1pp4[8:7]/7qq4[8:7],,,{1},{8}35,,8b/7b,78,,16,16,,3h[4:1]/4,,1,1,,28,28,,45,,17,1pp1[8:5]b/7qq7[8:5]b,{2},,{8}8,{4}8,75,18,24,45,75,18,26,{8}7,8,1b/6b,,2,1,8b/3b,,18,18,2bv4[8:3]/7bv5[8:3],{2},{8},,,E4,,,,E6,,,,Ch[8:7]f,{4},,,B2/B3/B6/B7,E
MASTER
(185){1},1b-7-5[4:5]*-3-5[4:5],,{4}C/B6/B5/B4,,,{8}1x/2x,1x/2x,,,8x/7x,8x/7x,,18,,27,2/7h[4:1],,5,5,,64,64,,3,3,4,2,,15,5b/1bv6<1[4:3],,{1},{8},2,2,1,2x/8x,,45,,7-4[8:1],,8,8,,1,,2,2-5[8:1],,1,1,,8,,47,4/7h[4:1],,5,,46,46,,5h[4:1]/2h[4:1],,,,8x/7x,,1,2,3h[2:1],,6,5,4h[2:1],,3,2,1h[2:1],,4,5,6-1[8:1],,2x,,4,4h[2:1],,A2/D3/A3,,A5/D6/A6,,5bx/3bx,3bxh[4:1]/5bxh[4:1],,,,4x/6x,,36,36,,
5/4<5v3[4:2],,7x,,7x,,,25,,3<6[4:1]/6,,7,,8,,7h[4:1],,5,5,,46,,57,5/7h[4:1],,B6/E6/B5,,B3/E4/B4,,1x,1x,,3h[4:1],,4,2h[4:1],,4,1h[4:3],,A4,,A3,,A2,,4x/1x,,3h[4:1]/5h[4:1],,,35,4h[4:1]/6h[4:1],,,46,5,3,4,5,6,5x/7x,,78,78,,15,2,34,,56,,57,,58,7,56,,4/3>8-4[4:2],,5,,6,6,6,,7h[4:1],,5h[4:1],,8,,{16}1,,1x,8x,2x,,{8},3bh[4:1]/4bh[4:1],,,4h[4:1]/5h[4:1],,,56,,5h[4:1]/6h[4:1],,,4h[4:1]/5h[4:1],,,34,,2x/5x,,,1h[4:1],,3h[4:1],,5,5-7[4:1]*-3-1[4:1],,,,,,8x,,1/7h[4:17],,,C,E5,,,B6,B5,,3,,1bx,,1bx,,C,,,E3,E4,,,E6,E5,,3,,1bx,,1bx,,8h[4:1],,,1h[4:1]/6h[4:1],,,52,,3h[4:1]/4h[4:1],,,4h[4:1]/5h[4:1],,,5/6<1[4:1],,,,2,2>5[4:1],,,8,8,,17,17,17,26,,18,,
5b/2bv5[8:1],,12,,4/7v4[8:1],,78,,6/2v5[8:1],,12,,7,8,1/6>3[8:1],,2<7[8:1],,6-3[8:1],,2,,1x/2x,8x/3x,,12,83,,17,1>3[8:1]/7<5[8:1],,1b/7b,,8-3[8:1]/7-4[8:1],,8b/7b,,1-4[8:1]/8-5[8:1],,1b/8b,,1-6[8:1]/2-5[8:1],,1b/2b,,47,47,,5x/6x,,7x/8x,,2x,1xz5[8:3]/2xz6[8:3],,,,,,,5-3[8:1]b/6-8[8:1]b,,A5/D6/A6,,8x,7,2-4[8:1]/6-4[8:1],,26,,17,,1,2,3-5[8:1]/7-5[8:1],,37,,2v5[8:1]/8v5[8:1],,2b/8b,,78,16,,12,83,4/7h[4:1],,8x,1x/6x,,38,8/3-5[8:1],,7-1[8:1],,3<5[8:1],,7>1[8:1],,1,,3h[4:1],,1,8,7h[4:1],,5,4,5bx/3bxh[4:1],,6,5,4bx/6bx,,75,64,5bxh[4:1]/3bxh[8:3],,,,B6,B4,,1x/8x,,{1}1>7<1[4:7]/7h[2:1],8h[2:1],{4}8,1,2,5/3h[4:2],4,4<5-7>8[8:3]*>3-1<8[8:3],,,Cf/B6/B4/B2,,{8},{16}8x,,,1x/7x,1x/7xp3p7[8:15],,{8},,,,,Ch[8:11]f,,,{1},{2},{8},18,7/2-5[8:1],,5b,,6h[8:11],,,5,5,,,4,4,,,5,5h[4:7],,,6,6,,,4,4,,3x,3x,3x,3x,3x<6[8:1],,,,3,5,4,6,7h[8:1]/5h[8:1],,75,,6,4,5,3,24,,1,1>4[8:1],,7,7-4[8:1],,2-4[16:1],,8z4[4:2],,1x,,1x,,1xh[4:1],,4b,,5/2>6[8:5]b,,,E5,E4,,,8,8h[4:1],,7h[4:1],,6h[4:1],,5,,4/7<3[16:11],,,E5,E6,,,1,1h[4:1],,2h[4:1],,3h[4:1],,4,,3h[4:1]/4h[4:1],,,4h[4:1]/5h[4:1],,,6x/5x-3-6-2-8[8:6],,,,,,,7,7-5-1[4:1],,,,2,2-4-8[4:1],,,7,7h[4:1],,8,8,17,1-4[8:1]/7-4[8:1],,1x/7x,,{4}B4f,,B7,C,B3,,B2,C,B6,,A1/B1,A3/B3,{8}A5/B5/C,,,1xh[4:1]/8xh[4:1],,,,2b/7h[4:1],,5,5,6b,3,3,4,2bh[4:1],,4,4,3,6,6,5,7,B5/B6,,B3/B4,,C,,1,1h[4:1],,7,6,5h[4:1],,3,3,4/2bh[4:1],,5,6,7bh[4:1],,8,6b/1b,,
{4}2-5[8:1]/5-1[8:1],25,4-8[8:1]/7-4[8:1],74,2-5[8:1]/5-1[8:1],52,3/8-4[8:1],4qq2[4:1]*pp6[4:1],,,1x/7x,{8}2bx/8bx,3bx/7bx,,2b/8b,3b/7b,,46,4>2[8:1]/6<8[8:1],,4b/6b,,5-2[8:1]/6-1[8:1],,5b/6b,,4-1[8:1]/5-8[8:1],,4b/5b,,3-8[8:1]/4-7[8:1],,3b/4b,,16,16,,34,,56,,7,7<4[8:3]/8s4[8:3],,,,,,,3-1[8:1]b/4v6[8:1],,A3/D4/A4,,1x,2,3-6[8:1]/7-4[8:1],,37,,28,,8,7,6-3[8:1]/2-5[8:1],,26,,1>2-4[8:1]/7<6-4[8:1],,1b/7b,,78,16,,12,83,4/7bh[4:1],,8b,1b/6b,,47,4/7-1[8:1],,7/3-5[8:1],,3/7>1[8:1],,7/3<5[8:1],,53,,7h[4:1],,5,4,3h[4:1],,1,8,1bx/7bxh[4:1],,3,1,8bx/2bxh[4:1],,1,82,1bxh[4:1]/7bxh[4:1],,,17,,3,4,5,6h[4:1],,5,4,3h[4:1],,B5,B4,Ch[8:3],{4},,1<8v5[8:1]*>2v5[8:1],1b,E
Re:MASTER
- 2025/12/27追加しました,,間違ってないと信じて、、 -- やあきましゅう (2025-12-19 19:56:56)
最終更新:2026年01月06日 22:20