アットウィキロゴ

青空のラプソディ

アーティスト fhána

BPM BASIC ADVANCED EXPERT MASTER Re:MASTER
135 2 6 9+ 12 -

EXPERT MASTER Re:MASTER
譜面制作者 サファ太 小鳥遊さん -

BASIC


ADVANCED


EXPERT


MASTER

(135.1){4},,,
{8}4x/5x,4x/5x,7b/3b>4[4:5],,C,,,,C,,,,C,,,,5x/3x,,2b/6b<5[4:5],,C,,,,C,,,,C,,,,4x/5x,4x/5x,7b/3b>4[4:5],,E3,,,,E1,,,,E7,,,,5x/3x,,2b/6b<3[2:1],,E1,,,,E5,{16},,6,5x,,3,4x,,7,5x,,2,4x,,54,,54,,2,1x,,7,8x,,3,1x,,6,8x,,7b/2b,,7b/2b,,
53,,64,,53,,6,5,,4,5,,47,,3,,53,,64,,53,,6,5,,4,5,,74,,3,,35,,64,,53,,6,5,,4,5,,64,,1,8,1,,3,3,,64,,53,,6,6,,54,,36,,7x/4x,,53,,64,,3,4,,5,4,,52,,6,,64,,53,,64,,3,4,,5,4,,52,,6,,64,,53,,64,,3,4,,5,4,,53,,8,1,8,,6,6,,53,,64,,3,3,,65,,54,,43,,5,4,,56,,4/7h[16:3],,,{8}8,1,2,
3h[8:4],,B3/B4,,8h[8:4],,B7/B6,,5,5pp2[8:3],,7h[8:3],,,,,6h[8:4],,B6/B5,,1h[8:4],,B2/B3,,4,4qq8[8:3],,2h[8:3],,,,,1h[8:4],,B2/B3/E3,,8h[8:2],,B7/B6/E7,,4-1[8:1]/5-8[8:1],,,,{8}18,72,36,,3,3,24,3,6,6,57,6,{16}3,4x,,6,5x,,2,4x,,7,5x,,45,,45,,7,8x,,2,1x,,6,8x,,3,1x,,54,,7b/2b,,81,,72,72,,36,6xh[8:2]/3xh[8:2],,,,,,B7/Cf/B2,,,,
8x/1x-5[16:3],,,5>2[8:1],,,7,,8-4[16:3],,,4<7[8:1],,,2,,1-5[16:3],,,5>2[8:1],,,7,,8,,,,26,,5,,5-1[16:3],,,1<6[8:1],,,3,,4-8[16:3],,,8>3[8:1],,,6,,{4}5pp8[2:1],E4,E3,{16}E2,,3,,2-6[16:3],,,6>3[8:1],,,8,,7-3[16:3],,,3<6[8:1],,,1,,2-6[8:1],,,7,,,8,,8h[4:1]/4h[4:1],,,,,,5,,4-8[16:3],,,8>3[8:1],,,6,,5-1[16:3],,,1<6[8:1],,,3,,2xh[8:1],,,1xh[8:1]/5xh[8:1],,,7xh[8:1]/3xh[8:1],,,2xh[8:1]/5xh[8:1],,,Cf,,,,{16}2/4<2[8:2],,,8,,,3,,5>7[8:2],,,1,,,6,,4<2[8:2],,,8,,,3,,5,,,,83,,12,,2/1<3[8:2],,,6,,,2,,8>7[8:2],,,3,,,{8}7,1qq6[8:4],,E3 ,, E4,,E5,{16}56,,6/5<3[8:2],,,8,,,5,,4>6[8:2],,,1,,,4,,5<3[8:2],,,8,,,5,,Cf,,,,8b/4b,,,,8x/1x,,8x/1x,,3,4,2,6h[16:7],,5,5,,C,,E5,,8x/1x,,8x/1x,,6,5,7,3h[16:7],,4,4,,C,,E5,,8x/1x,,8x/1x,,3,4,2,6h[16:7],,5,5,,C,,E5,,
{4}2x/8x-3[8:1],8/1-5[8:1],1/7-4[8:1],7/2-5[8:1],2/6-1[8:1],6/3-8[8:1],37,{16}8x/1x,,8x/1x,,7b/2b,,35,,64,,3,4,,6,5,,34,,12,,35,,64,,34,,56,,4,5,4,5,{32}4x,5x,6x,7x,8x,1x,2x,3x,{4}4w8[8:1],{48}B4,Cf,B8,E

Re:MASTER


  • 追加しました2025/12/21 -- やあきましゅう (2025-12-21 07:49:55)
名前:
コメント:

タグ:

+ タグ編集
  • タグ:
最終更新:2025年12月21日 07:49