| アーティスト |
Circle of friends(天月-あまつき-・un:c・伊東歌詞太郎・コニー・はしやん) |
EASY
BASIC
ADVANCED
EXPERT
MASTER
(198)
{4}4>5[4:5],4,,,{1},{4}8q6[2:1],8,,,{4}2p4[2:1],2,,,
{4}5<4[4:5],5,,,{1},{4}1p3[2:1],1,,,{4}7q5[2:1],7,,,
{8}4,,3,,2,8,17,,5,,6,,7,1,82,,1,,2,,3,5,46,,8,,7,,6,4,53,,{4}26,48,15,37,25,46,68,28,
{8}25,,2,,37,,7,6,,6,,6,52,,2,3,,3,,3,48,,8,7,,7,,7,61,,34,,
74,,7,,62,,2,3,,3,,3,48,,8,7,,7,,7,61,,18,1^4[8:1]/8^5[8:1],,18,,{32},,,2b/7b,{2},
{4}4,4,17,26,5,5,82,73,4,4,1h[2:1]/7,8,3h[4:1],5h[4:1],7h[4:1],1,
5,6,82,71,4,3,17,28,5,6,8h[2:1]/2,1,6h[4:1],4h[4:1],2h[4:1],8b,
{8}1,,8,,3,4,2,,8,,1,,6,5,7,,3,,5,,8,7,1,,6,,4,,1,2,8,,
{4}4,78,5,12,2,56,7,34,2h[4:1],4h[4:1],5h[4:1],7h[4:1],{1}8>4[4:1],
{8}8,,17,,6,5,7,,1,,82,,3,4,2,,6,,57,,1,8,2,,3,,42,,8,1,7,,
{4}3,24,7,68,2,13,6,57,7h[4:1],5h[4:1],4h[4:1],2q5[2:1],{1},
{8}3,4,2,,6,5,7,,2,1,3,,7,8,6,,2,4,3,,7,5,6,,3,1,2,,6,8,7,,
{4}34,2h[4:1]/5h[4:1],,25,65,7h[4:1]/4h[4:1],,74,81,23,45,67,{1}4v2[4:1]/8v6[4:1],
{8}3,4,25,,6,5,74,,2,1,38,,7,8,61,,3,5,16,,6,4,83,,2,8,47,,7,1,52,,
{4}78,1h[4:1]/6h[4:1],,34,12,3h[4:1]/8h[4:1],,56,15,37,26,48,{1}1^4[4:1]/5^8[4:1],
{2}2h[2:1],{8}4,,1,8,,6,,4,35,,1,,{2}7h[2:1],{8}5,,8,1,,3,,5,64,,8,,
{2}3h[2:1],{8}1,,4,5,,7,,1,28,,5,,3,,24,,6,5,46,,7,,78,,2,1,28,,
1,5,3,7,4,8,2,6,{16}1,2,3,4,5,6,7,8,{4}1b,1-5[8:1],
8-6[8:1],2,,8-4[8:1],1-3[8:1],7,,1-5[8:1],8-6[8:1],2-4[8:1],7-5[8:1],1-3[8:1],8-4[8:1],1b,,1-5[8:1],
7-4[8:1],2,,8-4[8:1],2-5[8:1],7,,2-4[8:1],8-6[8:1],1-5[8:1],8-4[8:1],1-3[8:1],7-5[8:1],2b,,16,
{8}7h[4:1],,5h[4:1],,4,4,35,,4h[4:1],,6h[4:1],,7,7,68,,
5h[4:1],,3h[4:1],,2,2,13,,2h[4:1],,4h[4:1],,5,5,46,,
{4}2h[4:1],8h[4:1],6h[4:1],4h[4:1],3h[4:1],1h[4:1],7h[4:1],5h[4:1],
3^8[4:1],8^5[4:1],5^2[4:1],{1}2<4[2:1],{4}1^6[8:1],
1^4[8:1],1,,8^3[8:1],8^5[8:1],8,,1-3[8:1],1-6[8:1],1-4[8:1],1-7[8:1],1-5[8:1],1^6[8:1],1b,,8^3[8:1],
8^5[8:1],8,,1^6[8:1],1^4[8:1],1,,8-6[8:1],8-3[8:1],8-5[8:1],8-2[8:1],8-4[8:1],8^3[8:1],8b,,38,
{8}2h[4:1],,4h[4:1],,5,6,47,,5h[4:1],,3h[4:1],,2,1,38,,
4h[4:1],,6h[4:1],,7,8,16,,7h[4:1],,5h[4:1],,4,3,25,,
1,5,4,7,2,6,3,8,{4}1,46,68,28,
{8}2h[2:1]/4b,,4,,6h[1:1],,2,8,,8,,8,1h[1:1],,6,3,,3,,3,8h[1:1],,1,6,,6,,6,2,,34,,
7h[2:1]/5,,5,,4h[1:1],,7,3,,3,,3,8h[1:1],,4,6,,6,,6,1,,18,1^4[8:1]/8^5[8:1],,18,,{32},,,2b/7b,{1},,,,E
- ボカロのLinkから飛ぶページを新たに作成しました。 -- なみのり (2025-12-24 14:32:30)
- MASTER譜面を追加しました。修正等ありましたらよろしくお願いします。 -- けもがみ (2026-04-07 03:21:44)
最終更新:2026年10月03日 22:33