BASIC
ADVANCED
EXPERT
MASTER
(264){1},
{4}6,,6,,6/3<5[4:1],6,6,6,3h[4:3]/7h[4:3],,,{8},2xh[12:3]/8xh[12:3],,,{4}1x/7x,3x/5x,18,{12}7xb,6,5,1,2,3,8,7,6,2,3,4,{4}57,8-4[8:1],1b,,4h[4:3]/6h[4:3],,,{8},5h[12:3]/7h[12:3],,,{4}8-4b[8:1]/6-4b[8:1],,,{12}1b/8,2,3,7,6,5,2,3,4,8,7,6,2,4,2,4,2,4,{4}3bx,56,4h[12:2]/7h[12:2],47,2h[12:2]/5h[12:2],25,3-5[8:1]/7,7,1-5[8:1]/8,8,{12}7h[12:2],,5,5,,,2h[12:2],,4,4,,,3x/5x,,,1x/7x,,,{16}E2,E3,E4,E5,E6,E7,E8,E1,{1}Ch[1:1],{4}B1,,28,3/7-3[8:1],1bx>4b[8:1],1bx<6b[8:1],1bx-5b[8:1],1bx,{12}6bx,,4bx,4bx,,,3bx/5bx,,2bx/6bx,2bx/6bx,,,1,2,3,4,5,6,7,8,1,2,3,4h[12:3],{6},6,6,6,57,57,
(200){4}8b,{16}3,4,3,,5,4,5,,2,,2,4,,4,3,,6,5,6,,4,5,4,,7,,7,5,,5,6,,3,4,3,4,2,,2,,6,5,6,5,7,,7,,E8,B7,B6,E6,E3,B3,B4,E5,{8}8,8,1b/7b,,2/6h[4:1],,4,{16}4,3,2<7[4:1],,,4,,,6,,6>3[4:1],,,8,,,2,,2<7[4:1],,,4,,,6,,6h[4:1],,,,1,,1,2,{8}3<6[4:1],,8,,7x,7x,1x,2xh[4:1],,1,8bx/3bx,,7h[16:1],7h[16:1],6h[16:1],6h[16:1],4h[16:1]/5<8[8:1],4h[16:1],3,,2h[16:1],2h[16:1],3h[16:1],3h[16:1],5h[16:1]/4>1[8:1],5h[16:1],6,,7h[16:1],7h[16:1],6h[16:1]/8h[16:1],6h[16:1]/8h[16:1],1h[16:1]/5h[16:1],1h[16:1]/5h[16:1],2h[16:1]/4h[16:1],2h[16:1]/4h[16:1],{4}3-8[8:1],5-2[8:1],1-6[8:1],8b,(100){24}7h[8:3],,,E8,E7,E6,E5,E4,E3,{8}2xh[24:11],B1/E2,B3/E4,5h[12:1],{16},4x/7x,(95){4}4x/7xV53[4:1],3V17[128:33],(90)7>3[4:1],5b,(175){32}E5,B4,,,,,,,E7,B6,,,,,,,E3,B3,,,,,,,{16},4,5,4,
(174){8}6h[16:3],5,4h[16:3],5,7-5-1[4:1],7,5,3,2h[16:3],3,4h[16:3],3,2,13,4b/8b,,{16}47,,6,5,,5,6,,{2}4>2[8:1]/7<5[8:1],{16}17,,3,4,,4,3,,3,5,,46,{4}4b/6b,{8}7h[16:1],7h[16:1],8h[16:1],1h[16:1],2<7[8:1],3,5-1[8:1],6,2h[16:1],2h[16:1],8h[16:1],7h[16:1],4h[16:1]/6h[16:1],4h[16:1]/6h[16:1],3b/7b,,{4}1-4[8:1],1-6[8:1]/2,1/8-3[8:1],4-1[8:1]/8-5[8:1],4-7[8:1]/8,24,{16}1,8,1,,{4}2b/7b,{16}7h[8:1],,5,6h[8:1],,4,5h[8:1],,3,4,,4,3,,,18,,7h[8:1],,5,6h[8:1],,4,5h[8:1],,3,4h[8:1],,2,5x,6x,7x,(116){4}8xh[4:6]/3xb,,{8},5,{4}5,E6f/B6,E4f/B3,Ch[16:3],{8},1x/7x,
(232)2b>5[8:1],2,8-5[8:1],8,1q5[8:1],1,8<5[8:1],8,2-5[8:1],2,8v5[8:1],8,1bw5b[8:1],,1b,,8x,,6<2[4:1],,2V86[4:1],,4,,2-6[8:1],,6,7-3[8:1],,8,1,2bh[4:1],,{16}5,4,6h[8:1],,3,4,2h[8:1],,6,5,7h[8:1],,4,,3x/8x,,2,1,2,1,2,1h[16:3],,,3,,48,,,,{8}2-4[8:1]/6-4[8:1],,26,,1-3-7[4:1]/7,,8,8-5-2[4:1],,1,1>7[4:1],,Cf,,,,{16}2,1,2h[8:1],1h[16:1],,,7,8,7h[8:1],8h[16:1],,,2,4,2h[8:1],4h[16:1],,,7,5,7h[8:1],5h[16:1],,,46,3,2,1,8,7,6,5,{8}1x,,28,,3h[8:1]/4h[8:1],,5h[8:1]/6h[8:1],,78,7/8>3[8:1],,5-1[8:1],,4,4,,2x/8x,,46,46,,5/7p2[4:1],,2q7[4:1],,8,8,,2,1h[16:1],1h[16:1],1h[16:1],2bx>5[8:1]/8bx,,2,1-7[8:1]*-6[8:1],,1,,5,46,{4}3/7-3[8:1],1w5[8:1]/7,,{8},2bxh[4:1]/8x,,{16}1,8,7,6,4,3,2,1,7,6,5,4,8,1,2,3,5,6,7,8,{4}1w5[8:1]/4,1bx,3b>5s1b[16:21]/7b,,(222),,(106),(101),
(91){8}2>5[8:1]/8h[4:7],1,2,,3-5[8:1],2,3,,2v5[8:1],1,2,,5,5,4,4,3>1[8:1]/6>4[8:1],7,36,,2<8[8:1]/5>3[8:1],3,25,,1h[8:1]/4h[8:1],,25,{24}36,,7,5,,5,6,4,5,3,4,3,5,4,5,(136.5){8}4bxh[4:5]/6h[8:1],,6h[8:1],,6h[8:1],,7,7,6h[8:1],,6h[8:1],,57,{16}6,5,6,5,6,,{8}4h[8:1]/7h[8:1],,3h[8:1]/5h[8:1],,4h[8:1]/6h[8:1],,2h[8:1]/5h[8:1],,34,56,{16}4,4,5,5,Ch[16:5],,,,,8x,8x,,
(273){12}1b/7b,,7,8,,6,5,,2,1,,3,4-7[8:1],,4,2-6[8:1],,2,8-4[8:1],,8,1,,,35,,3,4,,7,8,,6,5,,2,1-6[8:1],,1,3-8[8:1],,3,5,,,1x/7x,,,{6}1bxh[12:1],2bxh[12:1],3bxh[12:1],5bxh[12:1],7bxh[12:1],8bxh[12:1],{4}1b/8b,4b/6b,{12}3,5,3,5,2,4,1,3,1,3,1,3,1h[12:2],,3h[12:1],,5h[12:1],,{4}7<4[8:1],1s5[4:1],,,
(285){12}6,,6,5,,2,1,,7,8,,3,4-7[8:1],,4,2-6[8:1],,2,8-4[8:1],,8,1,,,3,,3,1,,1,8,,8,6,,6,5-2[8:1]*>2[8:1],,,,,,8,,,1b/6b,,,7,8,7,8,7,8,6-4[8:1],,6,3b,,,2,1,2,1,2,1,3-5[8:1],,3,6b,,,8,7,6,5,4,3,7,6,5,4,3,2,{4}1bx-5[8:1]/8bx-4[8:1],1bx/8bx,E4/E5/E6,,
(300){16}8,7,6,5,8,7,6,5,1,2,3,4,5,6,7,8,1,2,3,4,1,2,3,4,1,8,7,6,{4}25,{6}3h[12:1]/4bh[12:1],3bh[12:1]/4h[12:1],1h[12:1]/2bh[12:1],7h[12:1]/8bh[12:1],7bh[12:1]/8h[12:1],5bh[12:1]/6h[12:1],{8}4x/5x,4x/5x,5x>3b[4:1]*<8b[4:1]/4x,,,,,,{12}2,1,2,1b,,,7,8,7,8b,,,2,1,2,3b,,,7,8,7,6b,,,{16}1,8,7,6,1,2,3,4,1bxh[32:1],8bxh[32:1],7bxh[32:1],6bxh[32:1],5bxh[32:1],4bxh[32:1],3bxh[32:1],2bxh[32:1],{4}1b,2>5[8:1]/8<5[8:1],28,,
(75){2}Ch[8:3],
(300){12}2,7,2,7,2,7,{16}1,8,1,8,1,8,1,8,{4}1b,7w3b[8:1]/8,7b/B7f,,{12}2,,2,4,,4,3,,3,5,,5,4,,4,6,,7,5,7,5,8,,,{1}1bx/6bxh[1:1],{16}1,2,3,4,7,6,5,4,2,3,4,5,8,7,6,5,{8}2,2,4,4,1/B5,,6,6,4,4,7/B3,,28,,17,17,17,,8b,,{12}1,7,1,7,2,6,2,6,3,5,3,5,2,4,3,7,5,6,{32}4h,5h,,,,,,,{4},{32}1b/8b,27,36,45,,,,,{8},,36,3-8[8:1]/6-8[8:1],36,36,,,,,E
Re:MASTER
- 2025/12/25ヤミナベ!!!!追加しました -- やあきましゅう (2025-12-25 08:21:56)
- BPMと、配置ミスの修正をしました。 -- けもがみ (2026-01-02 19:25:42)
最終更新:2026年01月08日 18:57