アットウィキロゴ

テトリス

アーティスト 柊マグネタイト

BPM BASIC ADVANCED EXPERT MASTER Re:MASTER
170 4 7 10+ 12 13+

EXPERT MASTER Re:MASTER
譜面制作者 サファ太 緑風 犬三郎 Luxizhel

BASIC

(170){1},
{2}1,1,2,,3,3,4,,5,5,6,,7,7,81,,
8,8,7,7,6,6,54,,4,4,3,3,2,2,81,,
1h[2:1]/2h[2:1],,1x/2x,,3h[2:1]/4h[2:1],,3x/4x,,
5h[2:1]/6h[2:1],,5x/6x,,7,7,
8x,8,1,1,2,2,81,,
{4}8b,,8,,7,7,7,,6,,6,,5,5,54,,4,,4,,3,3,3,,2,,2,,8x/1x,,,,
1b,,1,,2,2,2,,3,,3,,4,4,54,,5,,5,,6,6,6,,7,,7,,8,8,8,,
{1}8b/1b,

8-4[4:3],,3-8[4:3],,7-3[4:3],,2-6[4:3],,
B8,B1,B7,B2,B6,B3,B5,B4,E5,Ch[1:1],,
{4}1b,1,1,,2,2,2,,3,3,3,,4,4,45,,
5,5,5,,6,6,6,,7,7,7,,8,8,81,,
8,8,8,,7,7,7,,6,6,6,,5,5,54,,
4,4,4,,3,3,3,,2,2,2,,1,1,81,,
1b,1,1,1,2,2,12,,3,3,3,3,4,4,45,,
5,5,5,5,6,6,65,,7,7,7,7,8,8,81,,
8,8,8,8,7,7,78,,6,6,6,6,5,5,54,,
4,4,4,4,3,3,43,,2,2,2,2,1,1,81,,
7,7,78,,2,2,12,,8,8,1,1,81,81,8b/1b,
E

ADVANCED

(170){1},
{4}7,7,7,,6,6,6,,5,5,5,,43,,43,,
2,2,2,,3,3,3,,4,4,4,,56,,56,,
6,6,65,,7,7,78,,1,1,12,,34,34,34,,
3,3,43,,2,2,12,,8,8,78,,65,65,65,,
{1}6-3[2:1],2-6[2:1],8-4[2:1],2-5[2:1],
7-4[2:1],3-6[2:1],7-4[2:1],
{4}B2,B3,B4,,B7,B6,B5,,B2,B3,B4,B5,C,,,,
2x,2x,1x,1x,8x,8x,7x/8x,,7,7,8,8,1,1,12,,
2,2,3,3,4,4,65,,7,7,6,6,5,5,4bx/3bx,,
3,3,2,2,1,1,78,,6,6,7,7,8,8,12,,
2,2,3,3,4,4,65,,7,7,6,6,5,5,4bx/3bx,,
5h[2:1]/4h[2:1],,,,

{2}6h[2:1],5h[2:1],4h[2:1],3,3h[2:1],4h[2:1],5h[2:1],6,
7h[2:1],6h[2:1],5h[2:1],4,2h[2:1],3h[2:1],4h[2:1],5,
{4}4,4,3,,2,2,1,,8,8,7,,6,6,65,,
6p3[4:5],,,,,,,,2h[2:1],,1,,
B1,B2,B3/B4,,B8,B7,B6/B5,,
E3,E4,E5,E6,C,,,,
7x,7x,7x/8x,7x/8x,1x,1x,1x/2x,,3,3,12,12,8,8,78,,
7,7,65,65,4,4,43,,2,2,43,43,5,5,6b/5b,,
7h[2:1],,8,,78,78,78,,6h[2:1],,5,,65,65,65,,
3h[2:1],,4,,43,43,43,,2h[2:1],,1,,12,12,12,,
2,2,2,12,3,3,3,43,5,5,5,56,78,78,78,,
7,7,7,87,6,6,6,56,4,4,4,43,21,21,21,,
12,12,3,3,54,54,6,6,78,78,6,6,54,54,63,,
43,43,2,2,81,81,7,7,65,65,7,7,81,81,72,,
8,7,6,5,4,3,2,1,8,7,6,5,54,54,6bx/3bx,
E

EXPERT

(170)
{1},

{4}4,35,{8}2,2,{4}4,
{4}5,46,{8}7,7,{4}5,
{4}4,35,{8}2,2,{4}4,
{4}3h[4:1],4h[4:1],5h[4:1],6h[4:1],
{4}5,46,{8}7,7,{4}5,
{4}4,35,{8}2,2,{4}4,
{4}5,46,{8}7,7,{4}5z1[4:3],
{1},

{4}2bx/8bx,17,{8}6,6,{4}8,
{4}17,28,{8}3,3,{4}1,
{4}28,17,{8}6,6,{4}8,
{4}7h[4:1],8h[4:1],1h[4:1],2h[4:1],
{4}1,28,{8}3,3,{4}1,
{4}28,17,{8}6,6,{4}8,
{4}1h[2:1],2,8h[2:1],7,
{1}1w5[4:1],

{2}4bx/6bx-1[4:1],2-5[4:1],
{4}6bx,7bx/8bx,1bx/2bx,3bx/4bx,
{2}2bx-7[4:1]/5bx,6-3[4:1],
{4}2bx,1bx/8bx,5bx/7bx,3bx/5bxV71[2:1],
{2},{4},1>7[2:1]/2,
{2},{4},8V64[2:1]*V24[2:1],
{1},

{16}2h[16:3],,,4h[16:3],,,{8}3,{4}3,25,
{16}7h[16:3],,,5h[16:3],,,{8}6,{4}6,47,
{4}E4,B1/B2,E6,B7/B8,
{4}B3/E3,B6/E7,{2}E5,

{4}1b/2b,46,78,35,
{4}28,56,17,34,
{4}12,78,56,34,
{4}12,78,{2}16,
{2}2>5[4:1]/5<8[4:1],{4},5x/8x,
{2}4>1[4:1]/7<4[4:1],{4},2x/5x,
{4}7h[4:1],5h[4:1],3h[4:1],1h[4:1],
{4}7h[4:1],8,{2}1b/6b,

{4}7b/8b,35,12,46,
{4}17,34,28,56,
{4}78,12,34,56,
{4}78,12,38,4>1[4:1]/7<4[4:1],
{2},{4}1x/4x,2>5[4:1]/5<8[4:1],
{2},{4}4x/7x,2h[4:1]/5,
{4}4h[4:1],6h[4:1],8h[4:1],1,
{4}34,56,{2}8bqq5[4:3]/1bpp4[4:3],
{1},

{2}3hx[1:1],{8}4,4,{4}4,
{2}2h[4:3],{8}1,1,{4}1,
{8}8hx[8:3],,,1hx[8:3],,,{4}2x,
{1}1xv3-5[2:1]/2x,
{2}4bx/6bhx[1:1],{8}7,7,{4}7,
{2}5h[4:3],{8}4,4,{4}4,
{8}6hx[8:3],,,7hx[8:3],,,{4}8x,
{4}1/6h[2:1],8x,{2}1x,

{2}4bx/7bxv2[4:1],3<6[4:1],
{4}7bx,5bx/8bx,2bx/3bx,3bx/4bx,
{2}4bxp8[4:1]/5bx,6>3[4:1],
{4}2bx,1bx/4bx,6bx/7bx,5bx/6bx<3[2:1],
{2},{4},4x>7[2:1],
{2},{4},5xV71[2:1]*V31[2:1],
{1},

{16}2h[16:3],,,4h[16:3],,,{8}3,{4}3,25,
{16}7h[16:3],,,5h[16:3],,,{8}6,{4}6,47,
{4}E4,B1/B2/E2,E6,B7/B8/E8,
{4}B3/E3/E4,B6/E6/E7,{2}E5,

{4}2b/8b,56,17,34,
{4}12,56,78,34,
{4}12,78,56,34,
{4}12,2-6[4:1]/1-5[4:1],{2},
{4}8h[4:1],6h[4:1],4h[4:1],2h[4:1],
{4}8h[4:1],2h[4:1],4h[4:1],6,
{4}37,{8}2,2,{4}1,38,
{4}16,45,{2}3b/7b,

{4}1b/7b,34,28,56,
{4}78,34,12,56,
{4}78,12,34,56,
{4}78,6-2[4:1]/5-1[4:1],{2},
{4}8h[4:1],2h[4:1],4h[4:1],6h[4:1],
{4}8h[4:1],6h[4:1],4h[4:1],2,
{4}15,{8}2,2,{4}4,56,
{4}78,12,{2}3b/8b,

{2}1-3[8:1]/8-4[8:1],1-5[8:1]/8-6[8:1],
{2}1-3[8:1]/8-4[8:1],1-5[8:1]/8-6[8:1],
{4}18,23,45,67,
{4}18,3-7[4:1]/2-6[4:1],{2},
{4}8h[4:1],6h[4:1],4h[4:1],6h[4:1],
{4}8h[4:1],2h[4:1],4h[4:1],2h[4:1],
{4}1,{8}3,3,{4}24,56,
{1}8-4b[4:1]/2-6b[4:1],

{2}2b-6[8:1]/1b-5[8:1],8-4[8:1]/7-3[8:1],
{2}2-6[8:1]/1-5[8:1],8-4[8:1]/7-3[8:1],
{4}12,34,57,18,
{4}23,4q1[4:1]/5<8[4:1],{2},
{4}2h[4:1],4h[4:1],6h[4:1],4h[4:1],
{4}2h[4:1],8h[4:1],6h[4:1],8h[4:1],
{4}1,{8}3,3,{4}24,18,
{4}57,4v6[4:1]*v2[4:1]/5,{2},

{4}1b/7b,{8}3,3,{4}24,18,
{4}57,5v8[4:1]/3v8[4:1],{2},
{8}1,1,7,7,{4}28,46,
{4}7b-3[8:1],1b-6[8:1]*-4[8:1],{2},
E

MASTER

(170){1},{8}4/5,,6,6,5/7,,4,4,3/5,,8,8,5/7,,2,2,3/5,,6,6,5/7,,4,4,3/5,,6<1[4:1]/2>5[4:1],,,,,,4/5,,3,3,4/2,,5,5,6/4,,1,1,4/2,,7,7,6/4,,3,3,4/2,,5,5,6/4,,3-6[4:1]/7-2[4:1],,,,,,1/8,,2,2,1/3,,8,8,7/1,,4,4,1/3,,6,6,7/1,,2,2,1/3,,8,8,7-5v4-2[4:2]/1,,,,,,,,8/1,,7,7,8/6,,1,1,2/8,,5,5,8/6,,3,3,2/8,,7,7,8/6,,1,1,8/2,8/2,8/2,,5/7,,2/4,,

5/3>6[4:2],,5,,5,,5,,8b/5,,6b/5,,1b/5,,5/3b,,4/6<3[4:2],,4,,4,,4,,1b/4,,3b/4,,8b/4,,4>1[8:1]/6b<1[8:1],,,,,8x/2x,8x/2x,,4/6,,7>2[4:1],,5,,3<6[4:1],,1,,7h[8:3],,,5,5,,2,,{16}1h[16:3],,,3h[16:3],,,4,,4,,,,5/6,,,,8h[16:3],,,6h[16:3],,,5,,5,,,,4b/3b,,,,{8}2h[4:1]/3h[4:1],,,,7h[4:1]/6h[4:1],,,,2x/3x,,7x/6x,,2x/3x,,,,

1-5[8:1]/2-4[8:1],,1x/2x,,6,6,5,,8-4[8:1]/7-5[8:1],,8x/7x,,3,3,4,,1-5[8:1]/2-4[8:1],,1x/2x,,6,,8/7,,1/2,,3>8[4:1]/4<7[4:1],,,,,,8-4[8:1]/7-5[8:1],,8x/7x,,3,3,4,,1-5[8:1]/2-4[8:1],,1x/2x,,6,6,5,,8-4[8:1]/7-5[8:1],,8x/7x,,3,,1/2,,8/7,,6-2[4:1]/5-1[4:1],,,,,,8<4[4:1],,4>8[4:1],,8<4[4:1],,4,,8,,4,,2/6,,2/6,,1>5[4:1],,5<1[4:1],,1>5[4:1],,5,,1,,5,,7/3,,7/3,,8-6-4[4:1],,4-2-8[4:1],,8-6-4[4:1],,4,,8,,4,,2/6,,2/6,,1-3-5[4:1],,5-7-1[4:1],,1-3-5[4:1],,5,,1,,5,,7b/3b,,,,

Ch[4:2]/B5/B4,,,,,,,,1x/8x,,2-5[8:1],,6,,6,,7,,8-4[8:1],,2,,2,,{16}3,4,3,4,3,,6,5,6,5,6,,3,4,3,4,3,,2,,{8}2,,A2/E3/B3/B4,,A7/E7/B6/B5,,2x/8x,,7-4[8:1],,3,,3,,2,,1-5[8:1],,7,,7,,{16}6,5,6,5,6,,3,4,3,4,3,,6,5,6,5,6,,,,{4}7<4[4:1]/8p3[4:1],,,

{8}2h[4:1],,4h[4:1],,5h[4:1],,7-5[8:1],,1-3[8:1],,8-4[8:1],,1-5[8:1],,6,,7h[4:1],,5h[4:1],,4h[4:1],,2-4[8:1],,8-6[8:1],,1-5[8:1],,8-4[8:1],,3>8[8:1],,5,,,1x/7x,1x/7x,,3/5,,2<7[4:1],,4,,5,,6pp4[2:1],,4,,,2,2,,1,,{16}1h[16:3],,,3h[16:3],,,4,,4,,,,5/6,,,,8h[16:3],,,6h[16:3],,,5,,5,,,,4b/3b,,,,{8}2z6[8:3]b,,,,,,,,7bx/6bx,,2bx/3bx,,7bx/6bx,,,,

1-5[8:1]/2-4[8:1],,1x/2x,,8-4[8:1]/7-5[8:1],,8x/7x,,1-5[8:1]/2-4[8:1],,1x/2x,,8-4[8:1]/7-5[8:1],,8x/7x,,1-5[8:1]/8-6[8:1],,1x/8x,,8-4[8:1]/1-3[8:1],,8x/1x,,8/1,,6/4,,3/7,,5/6,,8-4[8:1]/7-5[8:1],,8x/7x,,1-5[8:1]/2-4[8:1],,1x/2x,,8-4[8:1]/7-5[8:1],,8x/7x,,1-5[8:1]/2-4[8:1],,1x/2x,,8-4[8:1]/1-3[8:1],,8x/1x,,1-5[8:1]/8-6[8:1],,1x/8x,,1/8,,3/5,,6/2,,4/3,,1>5[4:1],,5<1[4:1],,1>5[4:1],,5<1[4:1],,1,,5,,7/3,,7/3,,8<4[4:1],,4>8[4:1],,8<4[4:1],,4>8[4:1],,8,,4,,2/6,,2/6,,1-3-5[4:1],,5-7-1[4:1],,1-3-5[4:1],,5-7-1[4:1],,1,,5,,7/3,,7/3,,8-6-4[4:1],,4-2-8[4:1],,8-6-4[4:1],,4-2-8[4:1],,8,,4,,2/6,,,,

1-5[8:1]/2-4[8:1],,1x/2x,,8-4[8:1]/7-5[8:1],,8x/7x,,1>5[4:1],,5<1[4:1],,1,,5,,1-5[8:1]/2-4[8:1],,1x/2x,,8<4[4:1],,4>8[4:1],,8,,4,,2/6,,2/6,,8-4[8:1]/7-5[8:1],,8x/7x,,1-5[8:1]/2-4[8:1],,1x/2x,,8<4[4:1],,4>8[4:1],,8,,4,,8-4[8:1]/7-5[8:1],,8x/7x,,1>5[4:1],,5<1[4:1],,1,,5,,7/3,,7/3,,1-5[8:1]/2-5[8:1],,1x/2x,,8-4[8:1]/7-4[8:1],,8x/7x,,5-7-1[4:1],,1-3-5[4:1],,5,,1,,1-5[8:1]/2-5[8:1],,1x/2x,,4-2-8[4:1],,8-6-4[4:1],,4,,8,,6/2,,6/2,,8-4[8:1]/7-4[8:1],,8x/7x,,1-5[8:1]/2-5[8:1],,1x/2x,,4-2-8[4:1],,8-6-4[4:1],,4,,8,,8-4[8:1]/7-4[8:1],,8x/7x,,5-7-1[4:1],,1-3-5[4:1],,5,,1,,3/7,,,,2,2,4,3,8<5[8:1],,3,2,1>4[8:1],,6,7,8<5[8:1],,3,2,1-5[8:1],,7-3[8:1],,2-5[8:1],,,,3/6,,1/8,,B7/Cf/B2,
E

Re:MASTER

(170.0){1}4hx[4:3]/7hx[4:3],{16}6,,5,,4/7,,6,5,6,,7,,4/6,,5,,3,,4,,5/2,,3,4,3,,2,,5/3,,4,,6,,5,,4/7,,6,5,6,,7,,5/7,,5,,8h[4:1],,,,5>3[8:1]b,,5,,7<5[8:1]b,,7,,2,,,,3,,4,,2/5,,3,4,3-5[8:1],,6,,6,,7,,6,,5,,7/4,,6,5,6-4[8:1],,3,,3,,2,,3,,4,,2/5,,3,4,2,,1,,2/4,,3,,4/5v2[8:1]b*v8[8:1]b,,,,,,,,3-7[8:1]b/6-4[8:1]b,,,,,,,,1bx/5bx,,1/5,,2/4,,2,4,3,,3,,2-5[8:1]/4,,5,,6,,6,,4/7,,6,5,7,,7,,6-3[8:1]/4,,3,,2,,2,,2/5,,3,4,2,,2,,3/4,,3,,{1}4h[4:3]/2-4v5-7[4:2],{16}8,,8,,1/7,,6,5,6,,4/5,,3h[8:1],,4,,2/5,,1,,2/4,,3,4,3,,5/4,,6h[8:1],,5,,7/4,,8,,7/5,,6,,4/5,,3,4,2,,1,,8/2,,E2,,E8,,E3,,E7,,E4,,E6,,E5,,

8b<3[4:2],,,,3,,3,,2,,2,,1-6[8:1],,,,{4}7bx-4[8:1],2bx-5[8:1],8bx-3[8:1],2b,{16}1b>6[4:2],,,,6,,6,,7,,7,,8-5[8:1],,,,{4}4bx-1[8:1],7bx-2[8:1],3bx-6[8:1],1b,3/7pp3[4:2],4,4,4-1[8:1],5,2pp2[4:1]/6pp6[4:1],2x/6x,,1pp4[4:2]b/5pp8[4:2]b,,,,{16}5h[8:1]/6h[8:1],,,5h[8:1]/6h[8:1],,,5/6,,5/6,,7,,5/6,,4,,5h[8:1]/6h[8:1],,,5h[8:1]/6h[8:1],,,5/6,,5/6,,7,,4bx/8bx,,,,{8}7h[4:2],,5,4,3h[4:2],,4,5,6,,4/5,,1/8,,1>5[4:1],,

5b<1[4:1],,1>5[4:1],,5<1[4:1],,1>5[4:1],,5,,1,,3x/7x,,8<4[4:1],,4>8[4:1],,8<4[4:1],,4>8[4:1],,8<4[4:1],,4>8[4:1],,8,,4,,6/2,,7,7<4[8:1],,3,1-3-5[4:1],,6,7,8-2[8:1],3,8-6[8:1],4,8-4[8:1],2,8,3,3h[4:1],,1,1h[8:1],8h[4:1],,6,,4-1[8:1]/5-8[8:1],,4/5,,2/7,,2>6[4:1],,6b<2[4:1],,2q6[4:1],,6q2[4:1],,2>6[4:1],,6,,2,,4x/8x,,7<3[4:1],,3>7[4:1],,7p3[4:1],,3p7[4:1],,7<3[4:1],,3>7[4:1],,7,,3,,5/1,,3,2-5[8:1]/4,,6,7-4[8:1],,1,2,3,,3v8[8:1]/5v8[8:1],4,3/5,,1/7,6,4/5,3,1/2,8/1,7/8,6,4s8[4:1]b/5z1[4:1]b,,,,,,2/7,,3-6[4:1],,6p3[4:2],,,,,,,,

{4}4pp4[4:2]*qq4[4:2],,,,6q4[4:2],5h[4:2],,,{16}7,5,7,5,7,,2,4,2,4,2,,7,5,7,5,7h[8:7],,E5,,E6,,E7,,E8,,E1,,E2,,E3,,6bx,,6,,{4}5s1[4:1]/7,,,3-1v8-6[4:2],8h[4:2],,,{16}7,5,7,5,7,,2,4,2,4,2,,7,5,7,5,7>2[4:1],,,,2<7[4:1],,,,{4}3-5[8:1]b,,

{8}5x/7x,6,4x<8[4:1]*>8[4:1]/2x,3,4x,,,,1bx>4[8:1]b*<6[8:1]b,,1bx,,1bxw5[8:1],,1bx,,7-2[8:1],3-6[8:1],7,3,8-4[8:1],1-5[8:1],8,1,6bx-1[8:1],,4bx-2-8[4:1],,8bx-6-4[4:1],,4bx,,8x,,2>7[4:1]/5s1[4:1],,,,,,E8/E7/E6,,E2/B2/B3/E4,,7,6,4/5,3,2pp1[4:1]/6pp5[4:1],,,,,,2/6,,{16}4h[8:1]/3h[8:1],,,4h[8:1]/3h[8:1],,,4/3,,4/3,,2,,4/3,,5,,4h[8:1]/3h[8:1],,,4h[8:1]/3h[8:1],,,4/3,,4/3,,2,,5bx/1bx,,,,{8}8h[4:2],,7,7,7h[4:2],,6,6,6h[4:1],,5,,2/6,,1>5[4:1],,

5b<1[4:1],,1>1[4:2],,Cf,,1b>5[4:1],,Cf,,1,,3/7,,8<4[4:1],,4>8[4:1],,8<8[4:2],,Cf,,8<8[4:2],,Cf,,8,,C,,6x/2x,,7/8,6,4/5,2,1/3>8[8:1],,7,6,5h[4:1],,8,A6/D6/E6f,A2f/D2/E2,,8,8,{16}7/1,,2,4,3,,5/6,,4/8<5[8:1],,,,3/8>3[8:1],,,,6/8-4[8:1],,,,8,,,,{4}2/6,1-3[8:1]*-7[8:1],1v4[8:1]*v6[8:1],1,3v8[16:1]/7v2[16:1],{64}3/7,Cf,,,,,,,,,,,,,,,{4}3xv6[16:1]/7xv4[16:1],{64}3/7,Cf,,,,,,,,,,,,,,,{4}3x>8[8:1]/7x<4[8:1],3/7,1x>4[8:1]/5x<8[8:1],1x/5x,1x-6[8:1]/5x-2[8:1],1x/5x,3-8[8:1]/7-4[8:1],7>2[8:1]/3<6[8:1],3/7,3/7,{8}2,1/3-6[8:1],,8,7-2[8:1],,5,4,3h[4:2],,2,2,1<6[8:1],,1/5,4,{16}3/5,,2,4,3,,7,5,{4}6-1[8:1],6/4-7[8:1],4/2-5[8:1]*-6[8:1],2,7/4,1>4[8:1]/5<8[8:1],

1bxp5[8:1]/5bxp1[8:1],1x>4[8:1]/5x<8[8:1],1xp5[8:1]/5xp1[8:1],1x>4[8:1]/5x<8[8:1],1xp5[8:1]/5xp1[8:1],1x/5x,3b/7b,8x<5[8:1]/4x>1[8:1],8xq4[8:1]/4xq8[8:1],8x/4x,6x/2x,3h[4:1]/7,{32}E1,E2,E3,E4,E5,E6,E7,E8,E1,E2,E3,E4,E5,E6,E7,E8,{4}E1/Cf,2/7,{16}1/8,,2,4,3,,5/6,,{8}7-4[8:1],7,3-8[8:1],3,6pp1[4:2],,1,2,3,4,5,5,{16}4/8,,2,3,1,,7,5,6,4,5,3,{4}4-8[8:1],2-6[8:1]/4,1/2,3/7,2-4[8:1]/8-4[8:1],2-6[8:1]/8-6[8:1],2>4[8:1]/8q4[8:1],2p6[8:1]/8<6[8:1],2-4[8:1]/8-4[8:1],2-6[8:1]/8-6[8:1],8/2,8/2,7-5[8:1]/1-5[8:1],7-3[8:1]/1-3[8:1],7<5[8:1]/1p5[8:1],7q3[8:1]/1>3[8:1],7-5[8:1]/1-5[8:1],7-3[8:1]/1-3[8:1],7<5[8:1]/1p5[8:1],1/7,2/8,{8}1-7[8:1],1,6-2[8:1],6,3-5[8:1],3,7>6[4:1],7,1b,,,4,5v8[8:1]/3v8[8:1],,3/5,,{16}1/7,,2,4,3,,5/6,,{4}4-1[8:1]/7,5-8[8:1]/4,6<3[4:1]/5,6bx,5h[4:1],4,{16}3/5,,2,1,3,,6,5,7,,2,4,3,,{24}4/5h[4:1],,,6x,7x,8x,1x,2x,3x,{8}4xv1[8:1]b/6xv1[8:1]b,,4b/6b,,2/7,,{16}7x,1,6,2,5x,3,8x,2,7x,3,6,4,{4}4x-2[8:1]/5x-1[8:1],{64}5x-7[8:1]/4bx-8[8:1]b,Cf,,,,,,,,,,,,,,,4x-2[8:1]b/5bx-1[8:1]b,Cf,,,,,,,,,,,,,,,4b/5b,Cf,,,,,,,,,,,,,,,{4},E

  • MASTER譜面のデータを追加しました。修正や書き方などの間違いがございましたらよろしくお願いします。 -- Sugar (2026-01-01 22:45:04)
  • Re:MASTER譜面のデータを暫定ですが追加しました。修正や書き方などの間違いがございましたらよろしくお願いします。 -- Sugar (2026-01-02 18:34:58)
名前:
コメント:

タグ:

+ タグ編集
  • タグ:
最終更新:2026年04月05日 18:47