アットウィキロゴ

Tricolor⁂circuS

アーティスト ああ…翡翠茶漬け…

BPM BASIC ADVANCED EXPERT MASTER Re:MASTER
180 4 7 10+ 14 -

EXPERT MASTER Re:MASTER
譜面制作者 Jack ネコトリサーカス団 -

BASIC


ADVANCED


EXPERT


MASTER

(180)
{4}6-8[12:1],,45,27,3h[4:1],{12}4,4,3,Ch[2:1],,B1,,B8,,
{8}E1/D1f,,,,,,3,3,24,,,,,,6,6,{16}7h[8:1]/5h[8:1],,,48,,,2h[8:1]/4h[8:1],,,51,,,36,,27,,
1,8,1,8,1,8,1w5[32:3],8,{8}1,1b,,,
{16}3h[4:1],,1,,4h[4:1],,1,,3,,3,4,,4,3,,6h[4:1],,8,,5h[4:1],,8,,6,,6,5,,5,6,,
7,8,7,8,6,1,6,1,5,2,5,2,4,3,4-6-3-7-2-8[8:5],3,{4}5bhx[4:3],,,,

{8}6<8[8:1],E5,,B3,5<7[8:1],B4,,B2,3>1[8:1],E5,,B6,4>2[8:1],B5,,B7,
6-8[8:1],3-1[8:1],,,7-5[8:1],2-4[8:1],,,E1,E7,E5,E3,Ch[16:3],,,,
1h[8:1]/8h[8:1],,1h[8:1]/7h[8:1],,2h[8:1]/8h[8:1],,13,27,
6h[8:1]/8h[8:1],,1h[8:1]/2h[8:1],,8h[8:1]/7h[8:1],,68,27,
18,27,36,45,27,,Ch[4:1],,B7/B8/B1/B2,,,,,,45,45,
{16}3,4,3,4,2,,2,,5,4,5,4,6,,6,,3,4,3,4,2,5,2,5,3h[8:1],,4,,6h[8:1],,5,,
6,5,6,5,7,4,7,4,6,,5,5,,6,,,{8}3b/8b,4b/5b,6b/1b,5b/4b,Ch[16:3],,,,
6x-8[32:3],,B5,C,1x-3[32:3]/8x-4[32:3],,,,{16}3x,4,3,4,{8}3h[4:1],5-1[8:1],7h[4:1],,,,
6,78,12,34,5/6<3[4:1],,Ch[4:1],,,,,,1s5[4:1]/8,,,,

{16}7,,6,,5,,3,4,,4,3,,3-1-4pp4[4:3]/4,,,,{8}3x/6x,,7,,8,8,8,,
{16}2,,3,,4,,6,5,,5,6,,6-1[32:3]b/5-2[32:3]b,,,,{8}6x/5x,,,8,7,6,54,3,
{16}2b/7b,,,,4,5,4,5,3,6,3,,45,,3,,
2h[8:1]/4h[8:1],,,7h[8:1]/5h[8:1],,,{8}Ch[4:1],,B1/B8/E1,,,
2x/7x,,,,,,
6b/3bq8[4:1],,8>3[4:1],,3qq2[16:5],,8,7,6p1[4:1],,1<6[4:1],,6pp7[16:5],,1,2,3p6[4:1],,
6>3[4:1],,3pp4[16:5],,6,7,8,,{16}7,1,7,1,8,2,8,2,5,4,5,4,{32}6x,7,8,1,2,3,4,5,

{4}6bxqq2>4[8:9]*pp2<8[8:9],,,,,,,{16}6,4,6,4,
5h[8:1]/6h[8:1],,,47,,,4h[8:1]/3h[8:1],,,52,,,
1h[8:1]/2h[8:1],,,83,,,8h[8:1]/7h[8:1],,,16,,,8-4[32:3],,8,,,,,,
5h[4:2]/6,,6,,7,8,1,2,3>1[32:3],,,,36,,,,4h[4:2]/3,,3,,2,1,8,7,6<8[32:3],,,,63,,,,
{8}2x/E6,2,7x/E4,7,3x/E5,,6x/Chf[4:3],,{16}D6,D7,D8,D1,D2,D3,D4,,{2},

{16}1x/6x,,5,4,,3,4,,2-4[8:1],,1-5[8:1],,2bx,,1bx,,4,,7,8>4-6[4:1],,1,,28,,,,,1,2,3,4,
5x/6x,,7,78,,4,5,3,4,,2,21,,5,4,6,5-1[8:1],,7-3[8:1],,5,,7,,1bxh[4:1],,{32}D4,A4,D5,A5,{4}D6f,
{16}8x/3x,,4,5,,6,5,,7-5[8:1],,8-4[8:1],,7bx,,8bx,,5,,2,1-5[8:1],,8,,17,,,6,,1>7[4:1]/7,,28,,
1x/3bhx[4:1],,,,,2,1,2,38,,7,,16,,2,,34,,5,,46,,7,,18,,27,36,4bx/5bx,,,,
7bx/4x,,4,,4,,3,4,2bx/5x,,5,,5,,6,5,4x/7x,,8,,2x/5x,,1,,3-8[8:1]/6-1[8:1],,,,3b/6b`D1f,,,,
2,,3,,4,,6,5,,3,4,,2>8qq5[4:7]/7<1pp4[4:7],,18,,

{1}2b/7b,,
{16}3x,4,3,4,2,5,2,5,1,6,1,6,8,7,8,7,D3/A3,,D7/A6,,E4,B4,B5,E6,1s5[4:1]b,,8,,17,,,,
6,,6,,7,,4,4h[16:3],,,5,,6,5,6,,1,8,1,8,2,1,,3h[8:1],,4,3,5,4,6,5,7,
,,2,1,2,1,2,,7,8,7,8,7,,4,5,1,2,3,4,8,7,6,5,2,3,4,5,7,6,5,4,
3xs7[4:1],,,,,,,,E2,B2,B3,E4,E8,B7,B6,E6,{24}A1,D2,A2,D3,A3,D4,,,,A8,D8,A7,D7,A6,D6,{8},Cf,,
{16}D1,A8,D8,E1,B8,B7,B2,C,B6,B3,B4,E5,D4,A4,D5,,B1,A1,B2,A2,B3,A3,B4,A4,B5,A5,B6,A6,Cf,,,,
7x/8x,,12,1h[16:3]/2h[16:3],,,,,45,,56,,4-8[8:1]/5-7[8:1],,34,,45,,,,
8hx[16:1]/7hx[16:1],,1hx[16:1]/6hx[16:1],,2x>5[8:1]/5x<8[8:1],,,,,,,,
3x/7x,,37,,4x/8x,,15,,2x/6x,15,84,73,62,51,48,37,{4}2x-4-7[4:2]/6x-8-3[4:2],,,,

6h[2:1],,5h[2:1],,4h[2:1],,3h[2:1],,
{16}4,,,4,,,,,5,,,5,,,,,{4}46,35,4/6h[4:1],5,
8<5[4:2],E5,C,E1,1>4[4:2],D5,C,D1,
5hx[4:1]/7hx[4:1],,2hx[4:1]/4hx[4:1],,{8}57,6,24,3,58,6,14,3,

4>1[8:1]/5<8[8:1],,4bx/5bx,,{16}2x/7-4[8:1],,8-3[8:1],,7bx,,8bx,,
4,,2,1<5-2[4:1],,8,,71,,,,,8,7,6,5,
4x/3x,,2,21,,4,3,6,5,,7,78,,5,6,3,4-8[8:1],,2-6[8:1],,4,,2,,8bxh[4:1],,{32}D6,A5,D5,A4,{4}D4f,
{16}1x/7x,,6,5,,3,4,,8x/2x-5[8:1]b,,1x-6[8:1]b,,2bx,,1bx,,
5,,7,8-4[8:1],,1,,82,,,3,,8<2[4:1]/2,,71,,
8x/6bhx[4:1],,,,,7,8,7,61,,2,,83,,7,,65,,4,,53,,2,,81,,72,63,5bx/4bx,,,,
2bx/5x,,2bx/5,,2bx/5,,6,5,7bx/4x,,7bx/4,,7bx/4,,3,4,
5x/2x,,1,,7x/4x,,8,,6-1[8:1]/3-8[8:1],,,,6b/3b`D1f,,,,
7,,6,,5,,3,4,,6,5,,18,,27,,

{6}6h[6:2]/3,3,3,2h[6:2]/5,5,5,7h[6:2]/4,4,4,1h[6:2]/8,8,8,
2b/7b,,,36,,4h[6:19]/5>6p5[3:8],{1},,,5bx`E5f,,,E

Re:MASTER


  • 追加しました。スライド長さ、EXノーツ、花火エフェクト付け忘れ等ミスあるかも...修正点ありましたらよろしくお願いします! -- なたか? (2026-01-02 12:43:32)
  • MASTER譜面のノーツの配置ミス、SLIDEの速度の修正、EXノーツの修正、花火エフェクトの修正を行いました。 -- けもがみ (2026-05-19 00:47:00)
名前:
コメント:

タグ:

+ タグ編集
  • タグ:
最終更新:2026年05月19日 00:47