アットウィキロゴ

もういいよ

アーティスト こっちのけんと

BPM BASIC ADVANCED EXPERT MASTER Re:MASTER
147 2 6 9+ 13 -

EXPERT MASTER Re:MASTER
譜面制作者 はっぴー 鳩ホルダー -

BASIC

(147)
{1},
{1},
{1},

{1}8,
{1}8,
{1}1,
{1}1,
{2}8,8,
{1}8,
{2}1,1,
{1}1/8,

{2}1,1,
{1}2,
{2}3,3,
{1}4,
{2}5,5,
{1}6,
{2}7,7,
{1}7/8,

{2}8,8,
{2}7,7,
{2}6,6,
{1}4/5,
{2}4,4,
{2}3,3,
{2}2,2,
{1}1/8,

{1}1h[1:1]/2h[1:1],
{1},
{1}3h[1:1]/4h[1:1],
{1},
{1}5h[1:1]/6h[1:1],
{1},
{1}7h[1:1]/8h[1:1],
{1},

{1}B8,
{1}B1,
{1}B7,
{1}B2,
{1}B6,
{1}B3,
{1}Ch[1:1],
{1},

{4}1b,1,1,,
{2}2,2,
{4}3,3,3,,
{1}4/5,
{4}5,5,5,,
{2}6,6,
{4}7,7,7,,
{1}1b/8b,

{4}7,7,7,,
{1}1/8,
{4}2,2,2,,
{1}1/8,

{1}1-5[4:3],
{1},
{1}8-4[4:3],
{1},
{1}2-6[4:3],
{1},
{1}7-3[4:3],
{1},

{2}2,2,
{1}1/8,
{2}7,7,
{1}1/8,
{4}1,1,1/2,,
{4}8,8,7/8,,
{4}1,1,1/8,,
{1}1/8,

{1}B8,
{1}B1,
{1}B7,
{1}B2,
{1}B6,
{1}B3,
{1}C,

{4}8b,8,8,,
{4}7,7,7,,
{4}6,6,6,,
{2}4/5,4b/5b,
{4}4,4,4,,
{4}3,3,3,,
{4}2,2,2,,
{1}1b/8b,

{4}1,1,1,,
{1}2h[2:1],
{4}3,3,3,,
{1}4h[2:1]/5h[2:1],
{4}5,5,5,,
{1}6h[2:1],
{4}7,7,7,,
{1}1h[4:3]/8h[4:3],
E

ADVANCED


EXPERT

(147)
{1},
{1}3>8[8:3],
{1}7<4[8:3],

{2}1h[8:3]/2h[8:3],{8},34,{4}34,
{4}25,56,47,47,
{2}7h[8:3]/8h[8:3],{8},56,{4}56,
{4}47,34,25,12,
{2}3b/8b,7hx[4:1]/8hx[4:1],
{4}56,34,{2}1hx[4:1]/2hx[4:1],
{4}34,56,{2}4hx[4:1]/7hx[4:1],
{4}56,34,{2}2hx[4:1]/5hx[4:1],

{2}6h[2:1],8h[2:1],
{2}1h[2:1],3,
{2}3h[2:1],1h[2:1],
{2}8h[2:1],6,
{4}78,78,78,18,
{4}12,12,12,18,
{4}56,78,34,{8}2,2,
{4}1,3/8V64[4:1],{2},

{4}3h[8:1]/5h[8:1],3h[8:1]/5h[8:1],4h[8:1]/6h[8:1],4h[8:1]/6h[8:1],
{4}2h[8:1]/4h[8:1],2h[8:1]/4h[8:1],5h[8:1]/7h[8:1],5h[8:1]/7h[8:1],
{4}3h[8:1]/4h[8:1],3h[8:1]/4h[8:1],1h[8:1]/2h[8:1],1h[8:1]/2h[8:1],
{4}3x/8x,5h[8:1]/6h[8:1],7h[8:1]/8h[8:1],7h[8:1]/8h[8:1],
{4}1x/6x,34,56,35,
{4}46,25,47,2-6[8:1]/5h[4:1],
{4},{8},5x/7x,{4}5x/7x,{8},2x/4x,
{2}2x/4x<8[4:1],{4},3x/8x,

{2}2h[1:1],{4}4,5,
{2}6h[1:1],{4}8,1,
{2}2h[1:1],{4}4,5,
{2}6h[1:1],{4}8,1,
{4}2,35,35,26,
{4}26,3>8[4:1]/7<4[4:1],{2},
{4}5,46,46,37,
{2}3v1b[4:1]/7v5b[4:1],{4},2bx/6bx,

{4}34,2,56,7,
{2}7<4[4:1]/8p3[4:1],{4},3x/4x,
{4}25,34,47,56,
{2}7<4[4:1]/8p3[4:1],{4},3x/4x,
{4}2h[4:1],4,7h[4:1],5,
{2}7<4[4:1]/8p3[4:1],{4},3x/4x,
{2}2<7[4:1],6>3[4:1],
{2}1h[2:1],{4}4,3b/6b,

{4}17,28,{8}4,35,{4}35,
{4}17,28,{8}4,35,{4}35,
{4}7h[4:1],1h[4:1],4h[4:1],3,
{4}2b/5b,4,{2}B2/B6/Cf,
{4}17,28,{8}4,35,{4}35,
{4}17,28,{8}4,35,{4}35,
{8}7,7,1,1,4,4,{4}3,
{4}2b/5b,4,{2}B2/B6/Cf,

{4}7,7h[2:1],5,5h[2:1],
{4}4,4h[2:1],2,2h[2:1],
{4}8,8h[2:1],1,1h[4:3],
{1}7h[2:1],

{4}2h[8:1]/8h[8:1],2h[8:1]/8h[8:1],1h[8:1]/7h[8:1],1h[8:1]/7h[8:1],
{4}2h[8:1]/4h[8:1],2h[8:1]/4h[8:1],5h[8:1]/7h[8:1],5h[8:1]/7h[8:1],
{4}3h[8:1]/4h[8:1],3h[8:1]/4h[8:1],1h[8:1]/2h[8:1],1h[8:1]/2h[8:1],
{4}3x/8x,5h[8:1]/6h[8:1],7h[8:1]/8h[8:1],7h[8:1]/8h[8:1],
{4}1x/6x,78,12,17,
{4}28,16,38,4h[4:1]/7-3[8:1],
{4},{8},2x/4x,{4}2x/4x,{8},5x/7x,
{2}5x>1[4:1]/7x,{4},1x/6x,

{2}3qq1[4:1]/4pp6[4:1],{4},7x/8x,
{8}6,6,{4}5,{8}3,3,{4}4,
{2}5qq3[4:1]/6pp8[4:1],{4},1x/2x,
{8}3,3,{4}4,{8}6,6,{4}5,
{4}47,56,{2}E8f,
{4}25,34,{2}E2f,
{4}37,46,{2}E1f,
{4}26,35,{2}E1f,

{4}17,17,24,24,
{2}5q2[4:1]/6<1[4:1],{4},1x/2x,
{4}34,56,78,56,
{2}5q2[4:1]/6<1[4:1],{4},1x/2x,
{4}3h[4:1],1,6h[4:1],8,
{2}5q2[4:1]/6<1[4:1],{4},1x/2xs6[2:1],
{2},{4},7b,

{4}78,12,{8}35,26,{4}26,
{4}78,12,{8}35,26,{4}26,
{4}78,12,56,3-8[4:1]/4-7[4:1],
{2},1b/6b,
{4}78,12,{8}35,26,{4}26,
{4}78,12,{8}35,26,{4}26,
{4}78,12,56,3>8[4:1]/4<7[4:1],
{2},B2f/B6/E2/E3/E6/E7,

{4}7h[4:1],5h[4:1],4h[4:1],2h[4:1],
{4}6h[4:1],8-3[4:1]*-5[4:1],{2},
{4}2h[4:1],4h[4:1],5h[4:1],7h[4:1],
{4}3h[4:1],1-4[4:1]*-6[4:1],{2},
{4}3h[4:1],1h[4:1],8h[4:1],6h[4:1],
{4}2h[4:1],4-1[4:1]*-7[4:1],{2},
{4}6h[4:1],8h[4:1],1h[4:1],3,
{1}4h[2:1]/8h[2:1],
E

MASTER

(147)
{1},
{8}3h[8:3],,,4,,,{4}5,
{4}6h[2:1],5,4,46,

{16}12,,,3h[16:3]/8pp4[16:9],,,{8},{2},
{8}2,2,24,2,{4}24,45,
{16}56,,,4pp8[16:9]/7h[16:3],,,{8},{2},
{8}6,6,68,6,{2}6h[4:1]/8p3b[8:1],
{8}1bx/2bx,3,45,6,7h[8:1],{16}8,8,{4},
{8}78,6,45,3,2h[8:1],{16}1,1,{4},
{8}34,2,18,7,6h[8:1],{16}5,5,{4},
{16}57,,,24,,,{8}18,{4}1w5[8:1]/8,A1f,

{2}3/7<3q7b[4:5],1h[4:1],
{2}8h[4:1],{4}1,3<7p2[2:3],
{2}7h[4:1],8h[4:1],
{2}1h[4:1],{4}8,17,
{4}7bx/8bx,4bx/5bx,{8}1bx/2bx,3,4,5,
{4}6x/E2,3x/E8,{8}2x/E5,1,8,7,
{8}7h[4:1],8x,8x,2,2h[4:1],1x,1x,18,
{8}78,56,34,{16}2,1,,38,,45,,2b/6b,{8},

{4}1x-5[8:1],{8}5,6,7-4[8:1],7,4,3,
{8}2-6[8:1],2,6,7,8-4[8:1],8,4,3,
{8}2-4[8:1],2,5-7[8:1],5,3-1[8:1],3,{4}8-4[8:1]*-3[8:1],
{4},{8}2-5[8:1],2,6-8[8:1],6,{4}1-6[8:1]*-5[8:1],
{4},{8}7<4[8:1],7,4,3,2-5[8:1],2,
{8}5,6,7>2[8:1],7,2,3,{4}4,
{4}1h[4:1]/3h[4:1],{8},7,7,6h[4:1]/8h[4:1],{4},
{16}57,,,24,,,{8}36,{4}36,1b/8b,

{16}2h[16:3],,,3h[16:3],,,{8}4V25[4:1],,6,{4}6,
{16}7h[16:3],,,6h[16:3],,,{8}5V74[4:1],,3,{4}3,
{16}1h[16:3],,,2h[16:3],,,{8}3V52[4:1],,1,{4}1,
{16}8h[16:3],,,7h[16:3],,,{8}6V47[4:1],,8,{4}8,
{4}1<7[4:1],7<5[4:1],5>3[4:1],3>1[4:1],
{4}1s5[16:5],5,6,56,
{4}8-4[4:1],4>1[4:1],1-5[4:1],5<8[4:1],
{4}8s4[16:5],4,3,34,

{4}2h[4:1]/5,4h[4:1],5h[4:1],7<3<7[2:1],
{4}A2/B2,A8/B8,A1/B1,28,
{4}3h[4:1],1h[4:1],8h[4:1],6<2<6[2:1],
{4}A3/B3,A5/B5,A4/B4,35,
{8}6,6h[8:1],8,8h[8:1],1,1h[8:1],3>6<3[2:1],3,
{4}D6/E6,D4/E4,D5/E5,46,
{16}3,5,3,5,2,6,2,6,1,7,1,7,2,8,2,8,
{8}2,A7,{4}A2,{8}A4,A1,{4}2x-5[8:1],

{8}8b-4[8:1],1,2,1,26,E3/E6,{4}1/7-4[8:1],
{8}1-5[8:1],8,7,8,37,E4/E7,{4}2-7[8:1]/8,
{8}6-3[8:1],6,2<7[8:1],2,6>3[8:1],6,2,2,
{4}12,8-5[8:1]/3-6[8:1],A3f/A8,4/7-4[8:1],
{8}1-5[8:1],8,7,8,37,E4/E7,{4}2-5[8:1]/8,
{8}8-4[8:1],1,2,1,26,E3/E6,{4}1/7-2[8:1],
{8}3-6[8:1],3,7>2[8:1],7,3<6[8:1],3,7,7,
{2}7<4[8:1]/8>3[8:1],A1/A8/E1f/E2/E8,

{4}45,{12}6,5,6,3,4,3,6,5,6,
{4}47,{12}3,4,3,6,5,6,3,4,3,
{4}25,{12}7,7,7,5,5,5,4,4,4,
{2}3b/5bh[2:1],{12}3,4,5,{4}6,

{4}8p4[8:1],{8}4,3,2-5[8:1],2,5,6,
{8}7p3[8:1],7,3,2,1q5[8:1],1,5,6,
{8}7-5[8:1],7,4-2[8:1],4,6-8[8:1],6,{4}1v6[8:1]*q5[8:1],
{4},{8}7-4[8:1],7,3-1[8:1],3,{4}8v3[8:1]*p4[8:1],
{4},{8}2>5[8:1],2,5,6,7-4[8:1],7,
{8}4,3,2<7[8:1],2,7,6,{4}5,
{4}6h[4:1]/8h[4:1],{8},2,2,1h[4:1]/3h[4:1],{4},
{16}24,,,57,,,{8}45,{2}1b/8b,

{16}12,,,3/8pp4[16:9],,,{8}B1/B2/E2f,{2},
{8}2,2,24,2,{4}24,45,
{16}56,,,4pp8[16:9]/7,,,{8}B5/B6/E6f,{2},
{8}6,6,68,6,{2}6h[4:1]/8p3b[8:1],
{8}1bx/2bx,3,45,6,{16}7,7,8,6h[16:3],{8},8,
{8}78,6,45,3,{16}2,2,1,3h[16:3],{8},4,
{8}34,2,18,7,{16}6,6,5,7h[16:3],{8},5,
{16}57,,,12,,,{8}78,{16}1-5[8:1],8,2,7,{4}A1f,

{4}7h[4:1],5h[4:1],4h[4:1],2V47<2[2:1],
{2}8bh[2:1],{4},28,
{4}2h[4:1],4h[4:1],5h[4:1],7V52>7[2:1],
{2}1bh[2:1],{4},18,
{8}2/8h[8:1],2,1h[8:1]/3,3,2h[8:1]/4,4,3V16<3[2:1]/5,5,
{4}6,4,6,45,
{2}8v5[4:1]/1bxv4b[4:1],{4},3/6-1[8:1],

{8}4b-8[8:1]/6b,5,46,5,26,E2/E7,{4}3-8[8:1]/5,
{8}3/5-1[8:1],4,35,4,37,E3/E8,{4}4>6[4:1]/6,
{4}6<4[4:1],4>6[4:1],6<4[4:1],4-8[8:1],
{4}6b,7-4[8:1]/1-4[8:1],A1/A7/A8f/D1/D8,3x-8[8:1]/5x,
{8}3b/5b-1[8:1],4,35,4,37,E3/E8,{4}4/6-1[8:1],
{8}4-8[8:1]/6,5,46,5,26,E2/E7,{4}3/5<3[4:1],
{4}3>5[4:1],5<3[4:1],3>5[4:1],5-1[8:1],
{4}3b,48,{2}A2/A6/B2/B6/Cf,

{4}1h[8:1]/7h[8:1],1h[8:1]/7h[8:1],3h[8:1]/4h[8:1],2h[8:1]/8h[8:1],
{4}5h[8:1]/6h[8:1],4-8[8:1]/2-5[8:1],,3/7-4[8:1],
{8}3-8[8:1],3,6-1[8:1],6,2-5[8:1],2,7,7,
{4}4b/8bh[4:1],{12}6,6,6,4,4,4,2,2,2,
{4}1bh[4:1]/5b,{12}7,8,5,1,2,4,6,5,8,
{4}4/8h[4:1],{12}2,1,4,7,8,5,3,4,1,
{4}1h[4:1]/5,{12}5,6,7,1,2,3,{4}8-4[8:1],
{2}4b/8b,{12}E6,E5,E4,{4}C,
E

Re:MASTER


名前:
コメント:

タグ:

+ タグ編集
  • タグ:
最終更新:2026年01月31日 18:10