アットウィキロゴ

インドア系ならトラックメイカー

アーティスト Yunomi & nicamoq

BPM BASIC ADVANCED EXPERT MASTER Re:MASTER
128 2 7+ 10 13 -

EXPERT MASTER Re:MASTER
譜面制作者 Jack 一ノ瀬 リズ -

BASIC


ADVANCED


EXPERT

(128)
{2}4h[4:1],3h[4:1],
{2}2h[4:1],1h[4:1]/8h[8:1],
{2}8h[4:1],7h[4:1],
{2}6h[4:1],4h[8:1]/5h[4:1],
{4}4,4,4h[8:1],35,
{4}6,6,6h[8:1],5h[8:1],
{4}46,35,2h[8:1]/4h[8:1],24,
{4}3h[8:1]/5h[8:1],4h[8:1]/6h[8:1],{2}5-3[8:1]/7,

{4}5h[8:1],4h[8:1]/6h[8:1],3h[8:1],24,
{4}5h[8:1]/7h[8:1],4h[8:1],{2}3h[4:1]/5h[8:3],
{4}4h[16:3],5h[8:1],4h[8:1]/6h[8:1],57,
{2}2/4-8[8:1],6-8[8:1]/2-8[8:1],
{4}2/6h[4:1],5,3h[8:1]/4h[8:1],17,
{4}2h[16:1]/8h[16:1],6v8[4:1]/4v2[4:1],{2},
{4}3h[8:1]/7h[8:1],2h[8:1]/6h[8:1],{2}Ch[4:1],
{4}8h[16:1],1h[16:1],{8}E1,Cf,{4}E5,

{4}2h[8:1]/7h[8:1],3h[8:1]/4h[8:1],5h[8:1]/6h[8:1],28,
{2}3-1[8:1]/4-7[8:1],{4}8xh[4:1],{8}1x,1x,
{2}8v5[8:1]/2v5[8:1],{4}3h[8:1]/7h[8:1],15,
{4}2h[8:1]/4h[8:1],5h[8:1]/7h[8:1],{8}E4,E5,{4}E6,
{4}7h[16:3]/8,5h[8:1],1/2h[16:3],4h[8:1],
{2}5-2[8:1]/6-8[8:1],{4}1xh[4:1],{8}8x,8x,
{4}1h[8:1]/2h[8:1],3h[8:1]/4h[8:1],5h[8:1]/6h[8:1],7^4[8:1]/8,
{2}1x-5[8:1],{4}8h[4:1],1b,

{4}3h[4:1]/4,1,1/B3,8/C,
{4}7/B6,8/C,{2}1/B3,
{4}5/6h[4:1],8,8/B6,1/C,
{4}2/B3,1/C,{2}8/B6,
{4}34,2^4[8:1]/5^7[8:1],,8h[4:3],
{4}6,2,4,1,
{4}56,4^2[8:1]/7^5[8:1],,1h[4:3],
{4}3,7,5,{8}8xh[16:1],1x,

{4}2h[8:1]/7h[8:1],5h[8:1]/6h[8:1],2h[8:1]/4h[8:1],18,
{4}3h[8:1]/4h[8:1],5h[8:1]/7h[8:1],1xh[4:1],{8}8x,8x,
{4}3/7V53[4:1],1xh[8:3],{8},8x,8x,1x,
{4}2h[8:1]/7h[8:1],4h[8:1]/5h[8:1],{8}E5,C,{4}E1,
{8}3h[8:1],4h[8:1],2h[8:1],5h[8:1],1h[8:1],6h[8:1],8h[8:1],7h[8:1],
{8}4h[8:1],6h[8:1],3h[8:1],7h[8:1],2h[8:1],8h[8:1],1x,8x,
{8}2xh[16:1]/7h[2:3],2xh[16:1],2xh[16:1],2xh[16:1],2xh[16:1],2xh[16:1],2xh[16:1],2xh[16:1],
{2}2xh[2:1],{4},4b/5b,

{4}6h[4:1],8,8/E6/B6,1/B5/C,
{4}2/B3/B4,1/B5/C,8/E6/B6,B8/B1,
{4}3h[4:1],1,1/E4/B3,8/B4/C,
{4}7/B5/B6,8/B4/C,1/E4/B3,C,
{8}8,8h[8:13],,E2,,E6,,E2/B2,
{8},E6/B6,,B1/E2,,E6/B5,{4},
{8}1,1h[8:7],,E8,,E4,,8h[8:1],
{4},18,27,6<4[4:5]/3qq4[4:5],

{1},
{2},{4}5,46,
{2}5h[4:3]/7h[4:1],4h[4:3],
{2}2h[2:1],{4}1,38,
{2}2h[4:1]/4h[4:3],5h[4:3],
{2}7h[2:1],{4}8,1-5[8:1]/6,
{4},7xh[2:1],,6x,
{2}2xh[4:1]/3xh[4:1],{4}45,2b/7b,

{4}1/8x-6[8:1],1,2h[8:1]/5h[8:1],4h[8:1]/7h[8:1],
{2}5x-2[8:1]/6x-8[8:1],{4}1xh[4:1],{8}8x,8x,
{2}7v4[8:1]/1v4[8:1],{4}2h[8:1]/6h[8:1],48,
{4}5h[8:1]/7h[8:1],2h[8:1]/4h[8:1],{8}E6,E5,{4}E4,
{4}1x-3[8:1]/8,8,4h[8:1]/7h[8:1],2h[8:1]/5h[8:1],
{2}3x-1[8:1]/4x-7[8:1],{4}8xh[4:1],{8}1x,1x,
{4}2h[8:1]/8h[8:1],5h[8:1]/6h[8:1],1h[8:1]/7h[8:1],3/4-8[8:1],
{4}2x-6[8:1],7x,8x-4[8:1],1b,

{4}2h[8:1],4h[8:1],6h[8:1],57,
{4}1h[8:1],3h[8:1],5h[8:1]/7h[8:1],48,
{4}7h[8:1],5h[8:1],3h[8:1],24,
{4}8h[8:1],6h[8:1],2h[8:1]/4h[8:1],15,
{4}2h[16:3],4h[8:1],3h[8:1]/5h[8:1],16,
{4}7h[16:3],5h[8:1],4h[8:1]/6h[8:1],38,
{4}5h[8:1]/6h[8:1],3h[8:1]/4h[8:1],1h[4:1]/8h[16:3],{8},1b/8b,
{4}2xh[8:1]/7xh[8:1],3xh[8:1]/6xh[8:1],{2}4x/5x,
E

MASTER

(128){1},
{48}2,,,,,,2,,,,,,2,,,,,,,,,,,,3x,4,5,,,,,,,,,,,,,,,,,,,,,,
{48}7,,,,,,7,,,,,,7,,,,,,,,,,,,6x,5,4,,,,,,,,,,,,,,,,,,,,,,
{48}2,,,,,,2,,,,,,2,,,,,,,,,,,,3x,4,5,,,,,,,,,,,,,,,,,,,,,,
{48}7,,,,,,7,,,,,,7,,,,,,,,,,,,6x,5,4,,,,,,,,,,1,,,,,,,,,,,,
{48}2,,,,,,2,,,,,,3,,,,,,3,,,,,,4x,5,6,,,,,,,,,,4/6,,,,,,,,,,,,
{48}7,,,,,,7,,,,,,6,,,,,,6,,,,,,5x,4,3,,,,,,,,,,3/5,,,,,,,,,,,,
{48}2,,,,,,2,,,,,,3,,,,,,3,,,,,,4x,5,6,,,,,,,,,,4/6,,,,,,,,,,,,
{24}7,,,7,,,6,,,6,,,4,,5,,4,,2/7,,,,,,
{8}5/6,4,5/6,7,3/4,5,3/4,2,
{8}4/5h[4:1],3,4h[4:1],2,3h[4:1],1,1,,
{48}3/5,,,,,,3/5,,,,,,2h[4:1]/6h[2:1],,,,,,,,,,,,,E2,B1,B8,E8,,,,,,,,,E6,B5,B4,E4,,,,,,,,
{48}1x,,,,,,2,,,,,,8x,,,,,,7,,,,,,4h[4:1]/5h[4:1],,,,,,,,,,,,,E4/E6,B3/B6,B2/B7,E2/E8,,,,,,,,
{8}4h[4:1],5,5h[4:1],6,6h[4:1],7,7h[4:1],,
{8}4h[4:1],3,3h[4:1],2,2h[4:1],1,C1,,
{8}3h[4:1],5,4h[4:1],6,5h[4:1],7,8h[4:3],4,
{8}6,1,6,1,6,4/5,2/7,,
{8}1h[8:5]/7,7,6,6,5,5,E8/4,4,
{8}3/5h[8:5],3,2,2,1,1,E4/8,8,
{8}2h[8:5]/5,5,6,6,7,7,E4/8,8,
{8}5/7,1,2/4,8,3/6,4/5,2/7,,
{24}4,,,4,,5,4,,,4/5,,,6,,,6,,5,6,,,5/6,,,
{24}2,,,2,,5,2,,,2/5,,,8,,,8,,5,8,,,5/8,,,
{96}3,,,,,,,,5,,,,2,,,,,,,,5,,,,1,,,,,,,,5,,,,8,,,,,,,,5,,,,1,,,,,,,,5,,,,2,,,,,,,,5,,,,3x,,,2x,,,1x,,,8x,,,7x,,,6x,,,5x,,,4x,,,
{8}C1/3x,,,,3/6,4/5,2V86[4:1]/7,,
{4}6V82[4:1],2V86[4:1],6V82[4:1],2V86[4:1],
{4}6V82[4:1],2q2[4:1],C1,6V82[4:1],
{4}2V86[4:1],6V82[4:1],2V86[4:1],6V82[4:1],
{4}2V86[4:1],6p5[4:1],C1,2,
{4}1/8V64[4:1],4V68[4:1],8V24[4:1],4V28[4:1],
{4}8V64[4:1],4>6[4:1],C1,2,
{4}1V35[4:1]/8,5V31[4:1],1V75[4:1],5V71[4:1],
{4}1V35[4:1],5<3[4:1],C1,7,
{8}3/8h[8:3],3,4,4,B8/E8/5,5,B1/E2/6,6,
{8}4h[8:3]/7,7,8,8,B4/E4/1,1,B5/E6/2,2,
{8}3/5h[8:3],3,4,4,B8/E8/5,5,B1/E2/6,6,
{8}3/4,1,5/6,8,3/6,4/5,2/7,,
{16}4,6,4,6,4,6,4,6,3,6,2,6,1,6,8,6,
{16}5,6,5,6,5,6,5,6,4,6,3,6,2,6,1,6,
{32}5,,5,,6,,6,,3,,3,,6,,6,,2,,2,,6,,6,,2x,3,4,5,8x,7,6,5,
{4}1b,,1h[8:1]/8h[8:1],3/6V82[4:1],
{4}2V86[4:1],6V42[4:1],2V46[4:1],6V82[4:1],
{4}2V86[4:1],6q4[4:1],C1,1xV35[4:1],
{4}5V31[4:1],1V75[4:1],5V71[4:1],1V35[4:1],
{4}5V31[4:1],1q7[4:1],C1,8x,
{4}3V57[4:1]/6,7V53[4:1],3V16[4:1],6V42[4:1],
{4}2V46[4:1],6p4[4:1],C1,8x,
{4}1/6V42[4:1],2V46[4:1],6V83[4:1],3V57[4:1],
{8}7,,3,3,2/5,2/5,1x/8x<3[4:1],,
{4}3V17[4:1],7V13[4:1],3<1[4:1],1V75[4:1],
{4}5V71[4:1],1q2[4:1],C1,1x>6[4:1],
{4}6V82[4:1],2V86[4:1],6>8[4:1],8V24[4:1],
{4}4V28[4:1],8p6[4:1],C1,1x<4[4:1],
{4}4V28[4:1],8V24[4:1],4qq5[4:1],5V71[4:1],
{4}1V75[4:1],5p3[4:1],C1,8x>5[4:1],
{4}5V71[4:1],1V75[4:1],5pp4[4:1],4V28[4:1],
{4}8V24[4:1],4<4[4:1],C1,8x,
{8}3/6h[4:1],8,4h[4:1],3,5h[2:1],8,B5/E5/E6,8,
{8}3h[4:1],1,5h[4:1],6,4h[2:1],1,B4/E4/E5,1,
{8}6h[4:1],5,2h[4:1],3,5h[8:3],7,B5/E5/E6,7,
{8}2/4,1,5/7,8,3/6,4/5,2/7,,
{8}8h[4:1],B8,4h[4:1],B4,6h[4:1],B6,2h[4:1],E2/E3,
{8}4h[4:1],B4,1h[4:1],B1,6h[4:1],B6,4h[4:1],E4/E5,
{8}6h[4:1],B6,8h[4:1],B8,5h[4:1],B5,3h[8:1],E3/E4,
{8}2/4,1,5/7,8,3/6,4/5,2/7,,
{48}8,,,,,,1,,,,,,2,,,,,,3,,,,,,4x,5,6,,,,7,,,,,,3/8,,,,,,3,,,,,,
{48}1/6,,,,,,8,,,,,,7,,,,,,6,,,,,,5x,4,3,,,,2,,,,,,1/6,,,,,,2,,,,,,
{48}3/8,,,,,,1,,,,,,2,,,,,,3,,,,,,4x,5,6,,,,7,,,,,,3/8,,,,,,3,,,,,,
{48}1/6,,,,,,8,,,,,,7,,,,,,6,,,,,,5x,4,3,,,,2,,,,,,1/6,,,,,,2,,,,,,
{48}3/8,,,,,,1,,,,1,,2,,,,,,3,,,,,,4x,5,6,,,,7,,,,,,3/8,,,,,,3,,,,,,
{48}1/6,,,,,,8,,,,8,,7,,,,,,6,,,,,,5x,4,3,,,,2,,,,,,1/6,,,,,,2,,,,,,
{48}3/8,,,,,,1,,,,1,,2,,,,,,3,,,,,,4x,5,6,,,,7,,,,,,3/8,,,,,,7,,,,,,
{8}1/8,4/5,3/6,4/5,2b/7b,,,,
{1},
{1},
{1},
E

Re:MASTER


名前:
コメント:

タグ:

+ タグ編集
  • タグ:
最終更新:2026年03月30日 22:22