アットウィキロゴ

[X]

アーティスト Blacklolita

BPM BASIC ADVANCED EXPERT MASTER Re:MASTER
162 5 8 12 13+ -

EXPERT MASTER Re:MASTER
譜面制作者 Jack 翠楼屋 -

BASIC


ADVANCED


EXPERT


MASTER

(162){1},
{1}C1fh[1:1],
{2}8b,1h[4:5]/7h[4:3],
{2},3h[4:3],
{2}5h[4:5],7h[4:5],
{2},C1fh[2:1],
{4}8,7,6,5<8[8:1],
{8}1b,1,1,1,1/8,1/8,1/8,1/8,
{16}1b,7,1,7,2,6,2,6,3,5,4,6,3,7,2,8,
{8}1bV37[4:1],,7,8,1w5b[8:1],,C1f,,
{8}3b/7b,,3/8,8,3/7,6,5/3-1[8:1],2,
{8}3/4,5,3/4,,3/7,6,3/5-1[8:1],4,
{8}3/5,,3/8,8,3,6,3,4,
{96}3/6<3[4:1],,,,,,,,,,,,,,,,,,,,,,,,3,,,,,,,,,,,,4,,,,,,,,,,,,5b-1[8:1],,,,,,,,,,,,,,,,,,,,,,,,8x,C1f,,,,,,,,,,,,,,,,,,,,,,,
{8}3/7,,4/6,5,4/6,3-5[8:1],2/6,3-7[8:1],
{8}6,3,6,1,2-5[8:1]/6-1[8:1],,2x/6x,,
{12}4x/8x,,,6,6,5,4xh[12:1]/7xh[12:1],,3xh[12:1]/6xh[12:1],,2xh[12:1]/5xh[12:1],,
{4}4b/1bs5[4:1],7-3[8:1],7b,1x/5x,
{8}2h[4:1]/6b-2[4:1]<7[4:1],,,3,4,5,6,5,
{8}4-8[8:1]*>1[8:1],,4,,5/7,6,2/4,3,
{8}4/6>3[8:1],7,6/2-6[8:1],,2-4[8:1]/8-4[8:1],,2/8,,
{48}2x/6x,,,,,,8,,,1,,,8,,,1,,,8,,,1,,,7,,,,5,,,,6,,,,2,,,,4,,,,3,,,,
{4}5-1[8:1],5/2-4[8:1],2/8-6[8:1],8/5-1[8:1],
{4}5/2-6[8:1],2/8,5/7,3h[4:1]/4,
{12}1b,1,1,3,4,2,6b,6,6,2,4,3,
{12}8b,8,8,6,6,6,4b,4,4,2>2[1:2]<4[16:25],,,
{1}2b,
{1},
{1}C1fh[2:3],
{1},
{16}2,1,2,1,3V58[16:5],8,3,8,,,,,,,,,
{16}7,8,7,8,6V41[16:5],1,6,1,,,,,,,,,
{16}2,4,3,6,5,7,3,4,2,7,8,6,1,5,2,4,
{96}3s7[4:1],,,,,,,,,,,,,,,,,,,,,,,,5-1[8:1],,,,,,,,,,,,,,,,,,,,,,,,,C1f,,,,,,,,,,,,,,,,,,,,,,,8x,,,,,,,,,,,,,,,,,,,,,,,,
{16}1bh[8:1]/8bh[8:1],,,7bxh[16:13]/2bx-7[8:1]-4[8:1]-1[8:1]-6[8:1]-3[8:1]-8[8:1]-5[8:1],,,,,,,,,,,,,
{4},,B4/A4/B5/E5/A5/D5/B6f/E6/A6/D6/B7/E7/A7/D7,1b,
{16}1bh[8:1]/2bh[8:1],,,3bxh[16:13]/8bx-3[8:1]-6[8:1]-1[8:1]-4[8:1]-7[8:1]-2[8:1]-5[8:1],,,,,,,,,,,,,
{4},,B2/A2/B3/E3/A3/D3/B4/E4f/A4/D4/B5/E5/A5/D5,8b,
{16}7bh[8:1]/8bh[8:1],,,6bxh[16:13]/1bx-6b[8:1]-3[8:1]-8[8:1]-5[8:1]-2[8:1]-7[8:1]-4[8:1],,,,,,,,,,,,,
{4},,B4/E4/A4/D4/B5f/E5/A5/D5/B6/E6/A6/D6/E7/D7,1b,
{16}2-6[8:1]/8-4[8:1],,,,2/8,,,,1/7,,2,4,3,,4/5,,
{16}2/8,,7,5,6,,4/5,,3-5[8:1]/6-4[8:1],,2/7,,3b/6b,,,,
{8}1-5[8:1]/8-4[8:1],,1/8,,2b/7b,,3h[16:1]/4h[16:1],4h[16:1]/5h[16:1],
{8}5h[16:1]/6h[16:1],2h[16:1]/5h[16:1],4h[16:1]/8h[16:1],1h[16:1]/3h[16:1],B5/E5/A5/D5/B6/E6/A6/D6f/B7/E7/A7/D7/E8/D8,,1,1,
{24}2h[16:1]/8h[16:1],,,3h[16:1]/4h[16:1],,,1h[16:1]/7h[16:1],,,5h[16:1]/6h[16:1],,,C1f,,,,,,1,,1,,1,,
{12}8,8,8,1,7,5,8,2,4,3,5,2,
{12}C1f,,,1-4[8:1]/7-4[8:1],,,1b/7b,,,3/5,3/5,3/5,
{12}4/6,4/6,4/6,3/7,3/7,3/7,C1f/B2/A2/B4/A4/B6/A6/B8/A8,,,1xw5[8:1],,,
{8}1b,,,3/7,3/7,,4,5,
{8}4/6,2,8<5[8:1],1>4[8:1],8v5[8:1],1v4[8:1],8,1,
{2}8b,1/7h[1:1],
{2},C1h[2:1],
{2}6h[2:1],8>6[4:3],
{2},8,
{12}7h[4:1]/8h[4:1],,,,,,1h[1:1]/6,,,E6,B5,B6,
{2}C1,8h[4:1],
{2}1h[4:1]/7h[4:1],2h[4:1]/6h[4:1],
{24}3,,,3,,,5,,,5,,,4,5,4,,7,,5,,6,,2,,
{8}8<5[8:1],1,8,,3,4-8[8:1],5,6h[4:1],
{8},1h[4:1],,3,3,2,8,7,
{8}5/6,4-8[4:1],,8<5[4:1],,5-1[0.3704##0.3704],,1,
(162){16},,5,,,,7,1,7b,,,5b/6b,,,3b/4b,,
(164){16}2,1,2,1,3,4,3,4,2,5,2,5,1,6,1,6,
(168){16}2,8,2,8,3,7,3,7,4,6,4,6,3,5,3,5,
(170){16}4,5,4,5,3,6,3,6,2,7,2,7,1,8,1,8,
(172){32}1,2,3,4,5,6,7,8,1w5b[8:1],2,3,4,5,6,7,8,,,,,,,,,3b/7b,,,,,,,,
{8}5/2>5[8:1],1,2/6,,7-3[8:1],8-4[8:1],7,8<5[8:1],
{8},3/8,,3/4,2-6[8:1],1/8,2,1,
{8}8x,1>3[8:1]/7-3[8:1],,1-5[8:1]/7<5[8:1],,1/7,,8x,
{16}8,,2,1,3,8,4,7,5b-1[8:1]-3[8:1],,,,5/6,,,,
{8}7<4[8:1],4-8[8:1],7,,2-6[8:1],1-5[8:1],2,1>4[8:1],
{8},1/6,,5/6,4-8[8:1]/7-4[8:1],,4/7,,
{8}1,2,3/5,6/4-8[8:1],,4/7-5[16:3]-3[16:3]-1[16:3],,1/7,
{4}C1f,,8bxw4b[8:1],8b,
{16}2x/6x,,2,,7,5,,3,4,,2,1,2,,3/8,,
{8}7-5[8:1],7,4>1[8:1],4,8-4[8:1],7-3[8:1],8,7,
{16}2,,1-5[8:1],,2/8,,1x,,6,,7,8,6,,1/5,,
{16}2-6b[8:1]-4[8:1],4,2,4,2,,,,8bxw4[8:1],,,,B8,C1,B4,,
{4}2x>4[8:1]/6x<8[8:1],2/6,1-6[8:1]/5-2[8:1],1/5,
{8}1/5,2/6,3v8[8:1]/7v4[8:1],,3/7,,1/5,,
{32}4bxh[4:1]/7bx<4[8:1],,,,,,,,,3x,2x,1x,,,,,4bxh[4:1]/8bx>3[8:1],,,,,,,,,5x,6x,7x,,,,,
{32}4bxh[4:1]/8bxh[4:1],,,,,,,,,3x/7x,2x/6x,1x/5x,4x/8x,,,,4x/8x,,,,,,,,2v5[8:1]/6v1[8:1],,,,,,,,
{96}2x/6x,C1f,,,,,,,,,,,,,,,,,,,,,,,4x/8xz4[4:1],,,,,,,,,,,,,,,,,,,,,,,,3b,,,,,,,,,,,,,,,,,,,,,,,,1,,,,,,,,,,,,,,,,,,,,,,,,
{8}3>6[4:1],4/5,6<3[4:1],,5-1[8:1],,,,
(180){4}3-5[8:1]/7-5[8:1],3-1[8:1]/7-1[8:1],3x/7x,3b/7b,
{16}2,8,2,8,3,7,4,6,5h[4:1],,,,7V51[4:1],,,,
{8}1V37[4:1],,4,,1b,,6,5/7,
{8}3,2/4,5h[4:1]/1-5[8:1],,1b,,4>1[8:1]/6<1[8:1],,
{4}6-4[8:1],1x-5[8:1],1b/8,4/6,
{16}3,5,3,5,2,6,1,7,8h[4:1],,,,6-2[8:1],,,,
{8}2/6,,1-4[8:1]*-6[8:1],,1b,,4bxh[16:1]/5bh[16:1],3h[16:1]/4h[16:1],
{8}4h[16:1]/5h[16:1],5h[16:1]/6h[16:1],2h[16:1]/5h[16:1],4h[16:1]/8h[16:1],C1f/B3/A3/B4/E4/A4/D4/B6/A6/B7/E7/A7/D7,,2>8[1:1]/8<2[1:1],,
{1}2b/8b,
{96},,,,,,,,,,,,,,,,,,,,,,,,,,,,,,,,,,,,,,,,,,,,,,,,2-6[8:1],,,,,,,,,,,,,,,,,,,,,,,,8,C1f,,,,,,,,,,,,,,,,,,,,,,,
{8}7/8,7/8,5/6,5/6,3/4,3/4,1/2,1/2,
{8}3/4,5/6,7/8,1/2,2/4,4/5,5/7,5/7,
{16}3,4,2,5,1-6b[8:1]-2[8:1]-5[8:1],6,2,5,1b,,,,,,,,
{16}6,5,7,4,8-3b[8:1]-7[8:1]-4[8:1],3,7,4,8b,,,,,,,,
{64}2b,,,,4,,,,3,,,,7b,,,,5,,,,6,,,,1b,,,,3,,,,2,,,,8b,,,,6,,,,7,,,,A1,D2,A2,D3,A3,D4,A4,D5,A5,D6,A6,D7,A7,D8,A8,D1,
{384}C1f/A1,2bx,,,,,,,,,,,3bx,,,,,,,,,,,,4bx,,,,,,,,,,,,5bx,,,,,,,,,,,,6bx,,,,,,,,,,,,7bx,,,,,,,,,,,,8bx,,,,,,,,,,,,1bx,,,,,,,,,,,,2x-6[8:1],,,,,,,,,,,,3x,,,,,,,,,,,,4x,,,,,,,,,,,,5x,,,,,,,,,,,,6x,,,,,,,,,,,,7x,,,,,,,,,,,,8x,,,,,,,,,,,,1x,,,,,,,,,,,,2bv4[8:1]*v8[8:1],,,,,,,,,,,,,,,,,,,,,,,,,,,,,,,,,,,,,,,,,,,,,,,,,,,,,,,,,,,,,,,,,,,,,,,,,,,,,,,,,,,,,,,,,,,,,,,,,,,,,,,,,,,,,,,,,,,,,,,,,,,,,,,,,,,,,,,,,,,,,,,,,,,,,,,,,,,,,,,,,,,,,,,,,,,,,,,,,,,,,,,,,,,,,,,,
{1},
{1},
{1},
E

Re:MASTER


名前:
コメント:

タグ:

+ タグ編集
  • タグ:
最終更新:2026年04月08日 22:58