アットウィキロゴ

JINGLE DEATH

アーティスト DJ Myosuke & Gram

BPM BASIC ADVANCED EXPERT MASTER Re:MASTER
222 5 8 12 14 -

EXPERT MASTER Re:MASTER
譜面制作者 Luxizhel ロシェ@ペンギン -

BASIC


ADVANCED


EXPERT


MASTER

(130)
{1}1^4[2:1],8^5[2:1],3^6[2:1],2^7[2:1],
3^8[2:1]/4^7[2:1],6^1[2:1]/5^2[2:1],{2}8^5[2:1],8z4[8:1],
{48}B6,E7,D7,,,,,,,,,,B3,E3,D3,,,,,,,,,,,,,B5,E6,D6,,,,,,,B4,E4,D4,,,,,,,,,,

(222)
{4}1,1,1h[4:1],,2,{8}2,2h[8:3],{2},
{4}3,4,{8}5,5,{4}5,4h[2:1]/6>2[4:1],,,{24}2x,3x,4x,5x,6x,7x,
{4}8x,8,8h[4:1],{8},7,{4}7h[4:1],6h[4:1],5h[4:1],4h[4:1],
3h[4:1],2h[4:1],1h[4:1],8h[4:1],{2}7-2[8:1],4-1[8:1],
{4}2b/8b,3,4/6h[4:1],5,6/8h[4:1],7,2h[4:1]/8,{8}1,1,
{4}1/3h[4:1],5h[4:1],{8}7,7,{4}7<2[2:1],8h[4:1],,7,6,
1/5h[4:1],1,1/4h[4:1],1,1/3h[4:1],1,1/2h[4:1],1,
{8}18,8,27,2,36,6,45,4,{16}6,5,6,5,6,5,6,5,{4}6^3[8:1]b,{32}7x,8x,1x,2x,,,,,
{1}8bz4[2:5],,,{32}1bx,2x,3x,4x,5x,6x,7x,8x,1x,2x,3x,4x,5x,6x,7x,8x,{4}1bxw5[8:1]b,1b,

7x,6-3[8:1]/7-2[8:1],B6/B7/E7f,1hx[4:1],{8}4,4,{4}6h[4:1],8w4[8:1],8x,
{8}26,26,{4}26,57,24,{8}6,6,4,4,{4}1w5[8:1]/3,1x,
2x/8x,{8}67,67,6-3[8:1]/7-2[8:1],,B6/B7/E7f,,1,1,4,4,{4}8w4[8:1],8x,
{16}26,,,78,,,6,5,6,,,12,,,34,,{2}C,{12}18,18,18,{4}2b/7b,
3x/8x,57,24,1-4[8:1]/8-5[8:1],{16}E1,C,A4/D5f/A5,,{12}18,,,7,7,8,{4}1b/6b,
1x/8x,24,57,{12}18,,2,2,4,4,{4}3-6[8:1],8-5[8:1],,
1xw5[8:1]/7x,A1f,8xw4[8:1],A8f,1xw5[8:1],A1f,8xw4[8:1],A8f,
1,{12}7,7,8,{4}16,38,{12}2,4,3,7,5,6,{4}4-8[8:1],3x/4x,

1-5[8:1]/7-4[8:1],1bx/7bx,3-6[8:1],8-5[8:1],4V26[8:3],1-7[8:1],1,{8}5,5,
{4}5-3[8:1],7-5[8:1],1-3[8:1],8-4[8:1],5V73[8:3],8-2[8:1],8,{8}4,4,
{4}4-6[8:1],2-4[8:1],8-6[8:1],1-5[8:1],4V26[8:3],1-7[8:1],1,{8}5,5,
{4}6/7-3[8:1],7/8-4[8:1],8/1-5[8:1],1/2-6[8:1],2/8w4[8:1],8,{8}26,26,{16}3,4,3,4,
{4}3-5[8:1],1-3[8:1],7-5[8:1],8-4[8:1],3V15[8:3],6-8[8:1],6,{8}7,7,
{4}6-4[8:1],8-6[8:1],2-4[8:1],1-5[8:1],6V84[8:3],3-1[8:1],3,{8}2,2,
{4}3-5[8:1],1-3[8:1],7-5[8:1],8-4[8:1],{8}4,5,6,7,{16}8,5,8,5,{8}8-4[8:1],1,
8x,2,2,2,35,6,6,6,{16}8,7,8,7,8,7,8,7,{32}1b,2,3,4,5,6,7,8,1,2,3,4,5,6,7,8,

{8}1bxz5[2:1],,,{16}B3,C,{2}B7,{8}8s4[2:1],,,{16}B6,C,{2}B2,
{8}1^3-7^5[2:1],,,{16}B3,C,{2}B7,{8}8^6-2^4[2:1],,,{16}B6,C,{2}B2,
{4}8,8,7,7,6,6-3[8:1],2,2,1h[4:1],2h[4:1],3h[4:1],4,{2}2/5h[8:7],{8}7,7,7,7,
{4}4x/6x,46,B2/B3/E3,,46,{8}5,5,{4}B2/B3/E3,,B7,B2,{8}E6,B5,{4}B4,E3/E7,,B3,E4,
A4/8x,,B6,E6,A5/1x,,B3,{24}E4,,,8,7,6,{8}5x/A4/D4,,,{24}1,2,3,
{8}4x/A5/D6,,,{24}18,27,36,{4}4bx/5bx,27,1b/8b,,

{1}5>1[1:1]/8V64[1:1],{4},,,{16}6,5,6,5,{2}7p5[1:1]*q1[1:1],,,{16}3,4,3,4,3,4,3,4,
{4}2pp4[4:1],,,{8},47,{4}4h[2:1]/7V58[4:1],,,{16}2,1,2,1,
{2}3-6[8:1],{8}8-5[8:1],,,2,{4}2h[8:1]/4h[8:1],7h[8:1]/5h[8:1],B3/B4/Cf/B5/B6,,
1h[4:7],E2,E3,E4,E5,E6,E7,E8,1,1/E2,1/E3,1/E4,1/E5,1/E6,1/E7,1/E8,
{16}2hx[16:3],,,4h[16:3],,,6,,6h[16:3],,,4h[16:3],,,2,,
7hx[16:3],,,5h[16:3],,,3,,3h[16:3],,,5h[16:3],,,7,,
{12}1x,4,3,7,5,6,2x,4,3,7,5,6,1x,1,3x,3,5x,5,8x,8,6x,6,4x,4,
{1}2bx-7[2:1]/3bx-6[2:1],{32}1,2,3,4,5,6,7,8,1,2,3,4,5,6,7,8,{4}1w5[8:1]b,1b,

{16}3x/7x,,6,5,6,,3,4,3,,{24}8,7,6,{8}53,3,31,3,3/5h[4:1],,{32}6-2[8:1],7,8,1,2,3,,,{8}6b,,
1x/3x,1x/3x,1x/3x,{16}7,8,7,,2,1,{8}2,5h[4:1],,7-3[8:1],68,7,,24,2-6[8:1]/4-6[8:1],24,,,
1-5[8:1],1,{4}1/8-4[8:1],8/6-2[8:1],61,{8}13,4,5,6,{4}3b-6[8:1]/7b-2[8:1],
3x/7x,{16},1bx/5bx,,,3bx/7bx,,,1bx/5bx,,,{8}2bhx[2:1]/4bx,,1,1,1,,18,{16}1,8,1,8,
2b,,7,5,7,,2,4,2,,7,5,{8}7,1/8h[2:1],,5,4,3,2-5[8:1]*-6[8:1],2,,,
4b/7b,47,47,{16}6,5,6,,3,4,{8}3,1-4[8:1]/2,,18,7,6/5h[2:1],,3,3-7[8:1],3,
C,,18,{16}2,1,2,,7,8,7,,2,1,{8}2,,38,38,{4}4-8[8:1]/7-5[8:1],4x/7x,
{16}1b/4b,,,2b/7b,,,5b/8b,,,4b/7b,,,{8}3b/5b,3bhx[4:1]/5bx,,2,1,{16}84,,,5bx/6bx,,,24,,38,,
{1}1bhx[1:4]/Cf,,,,

(130)
8^5[1:1],1^4[1:1],{4}A1,A8,A7,6xw2[16:1]b,{16}6bx,{1}D2/B2f/D3,,,,E

Re:MASTER


  • 追加しました。修正等ありましたらよろしくお願いします。 -- けもがみ (2026-01-03 16:30:56)
名前:
コメント:

タグ:

+ タグ編集
  • タグ:
最終更新:2026年04月11日 21:33