アットウィキロゴ

再会

アーティスト はるまきごはん

BPM BASIC ADVANCED EXPERT MASTER Re:MASTER
137 1 6 8+ 12 -

EXPERT MASTER Re:MASTER
譜面制作者 はっぴー シチミヘルツ -

BASIC


ADVANCED


EXPERT


MASTER

(137){4},,,,
1h[16:1],B5,C,,2h[16:1],B6,C,,3h[16:1],B7,C,,4h[16:1],B8,C,,
5h[16:1],B1,C,,6h[16:1],B2,C,,7h[16:1],B3,C,,1<2[2:3]/8h[1:1],,,,,,,,
{8}34,,35,,6,6,4,4,7-5[8:1],7,4-2[8:1],4,7>2[6:1],7,4x,,
4,,35,,3,3,5,5,2-4[8:1],2,5-7[8:1],5,2<7[6:1],2,5x,,
5,,46,,{16}6h[16:3],,,5h[16:3],,,4,,{8}3-1[8:1],3,6>3[6:1],6,1x,,
2q5[4:3]*qq5[4:3],,,,,,,,,,6,5,4,,{16}2h[16:3],,,3h[16:3],,,4,,
{8}4-1[8:1]/5,,5x,,3,3,4,4,2-4[8:1],2,5-7[8:1],5,2<7[6:1],2,5x,,
5,,46,,5,4,6,6,5/7-5[8:1],,4-2[8:1],4,7>2[6:1],7,4x,,
4,,35,,3,4,2,2,6-8[8:1],6,3<6[6:1],3,8x,,7,7,
46,5,4,35,4,5,46,37,8,17,26,,1,1,7<2[2:1],7,
{4}Cf,,,1>7[2:1],Cf,,,8<2[2:1],Cf,,,1>7[2:1],Cf,,,8,
56,{16}47,,,6,{8}5,5,47,,36,,{16}52,,,3,{8}4,4,52,,
36,,{16}47,,,6,{8}5,5,4>6[8:3]/7,,Cf,,,,,,1-5[8:1]/5,,
8b,,37,,{16}7,8,7,8,7x,,16,,2,1,2,1,2x,,38,,6,5,,3,4,,26,,
1-4[8:1]/7-4[8:1],,,,1x/7x,,,,3,4,3,4,3x,,26,,
6,5,6,5,6x,,47,,2,1,,7>6[16:5],8,,Cf,,
{8},,,2-5[8:1],,1,8,7-2[8:1],,3,3<6[6:1],3,7>2[6:1],7,4-1[8:1],4,
5x,,78,1x/6x,,12,38,47,{16}4h[16:3],,,2h[16:3],,,1,,3x/8x,,,,7-3[8:1],8,7,8,
7b,,,,15,,,,2,1,2,1,2x,,38,,7,8,7,8,7x,,61,,3,4,,6,5,,73,,
8-5[8:1]/2-5[8:1],,,,8x/2x,,,,6,5,6,5,6x,,73,,
{8}2-4[8:1],8,7-5[8:1],2,2-5[8:1],8,7pp2[2:1],1,
3b,,,,,,3pp6[2:1],,8b,,,,,8,7pp2[4:3]/3pp6[4:3],37,
3b/7b,,,,,,,,18,27,3/6p3[8:3]*p4[8:3],,,,,,
2,2,5,5,3,4,6,5,4,4,6,6,4,3,5,6,2,2,5,5,3,4,6,5,4,4,6,6,5,4,3x/5x,,
2,2h[8:3],4,5,6,6h[8:3],5,4,3h[4:1],4,6h[4:1],5,4h[8:1],5,4x/6x,,
7,7h[8:3],5,4,3,3h[8:3],4,5,6,6,56,,{16}4/6h[16:3],,,5,6,4,5,3,
{8}4-6[8:1],,2x,,3-5[8:1],3,7x,,6,,5x/7x,{16},6,{8}5,5,4x/7x,,
{8}5-3[8:1],,7x,,6-4[8:1],6,2x,,3,,4x/2x,,4-1[8:1]/5-8[8:1],,,,
12,34,25,16,87,65,74,83,12,3,45,6,57,6,45,3,
24,1x,5/7x,8x,3x/4,1x,5/6x,8x,1x/2,3x/4,7/8x,5/6x,1b/8b,2b/7hx[8:3],,,
Cf,,,,,,{16}4,5,3,4,2-5[8:1],,,,1b,,,,7,5,,5,6,,35,,
2-5[8:1]/6-1[8:1],,,,2x/6x,,,,3,4,3,4,3x,,2/5,,
6,5,6,5,6x,,7/4,,2,1,,7>6[16:5],8,,Cf,,
{8},,,2-5[8:1],,1,8,7-2[8:1],,3,3<6[6:1],3,7>2[6:1],7,4-1[8:1],4,
5x,,78,1x/6x,,12,38,47,{16}4h[16:3],,,2h[16:3],,,1,,3x/8x,,,,7>3[6:1],8,7,8,
7b,,,,4x,,,,6,5,7,5,6,,17,,2,1,3,1,2,,17,,6<2[4:1],,6,,2<6[4:1],,3,,
4-1[8:1],,,,4x,,,,7,8,6,8,7,,28,,{8}3-8[8:1],3<6[8:1],,,,1,1pp4[2:1],8,
7b,,,,,5,5pp8[2:1],4,3b,,,,1,2qq7[4:3]/6qq3[4:3],62,
6/2b,,,,,,,,,{16}17,,6,5,,3,4,,2xv5[6:1]/8v5[6:1],,,,,,,,E

Re:MASTER


名前:
コメント:

タグ:

+ タグ編集
  • タグ:
最終更新:2026年01月06日 10:25