アットウィキロゴ

唱

アーティスト Ado

BPM BASIC ADVANCED EXPERT MASTER Re:MASTER
132 2 6 9 11+ 13

EXPERT MASTER Re:MASTER
譜面制作者 サファ太 緑風 犬三郎 鳩ホルダー

BASIC

(132)
{1},

{1}1,
{1}1,
{1}1h[1:1],
{1},
{1}8,
{1}8,
{1}1h[1:1]/8h[1:1],
{1},

{1}1-5[4:3],
{1},
{1}8-4[4:3],
{1},

{2}1,1,
{2}2,2,
{2}3,3,
{1}3/4,
{2}5,5,
{2}6,6,
{2}7,7,
{1}7b/8b,

{1}7h[1:1]/8h[1:1],
{1},
{1}5h[1:1]/6h[1:1],
{1},
{1}3h[1:1]/4h[1:1],
{1},
{1}1h[1:1]/2h[1:1],
{1},

{1}B2,
{1}B3,
{1}B4,
{1}B5,
{1}B6,
{1}B7,
{1}Ch[1:1],
{1},

{4}1b,1,1,,
{2}2,2,
{4}3,3,3,,
{2}4/5,4/5,
{4}5,5,5,,
{2}6,6,
{4}7,7,7,,
{2}1/8,1b/8b,

{1}8-4[4:3],
{1},
{1}1-5[4:3],
{1},
{1}7-3[4:3],
{1},
{1}2-6[4:3],
{1},

{4}8b,8,8,,
{4}7,7,7,,
{4}6,6,6,,
{4}5/6,5/6,5/6,,
{4}4,4,4,,
{4}3,3,3,,
{4}2,2,2,,
{4}1/2,1/2,1/2,,

{4}7/8,7/8,7/8,,
{1}1b/8b,

{2}1,1,
{2}1/2,1/2,
{2}3,3,
{2}4/5,4/5,
{2}5,5,
{2}5bx/6bx,5x/6x,
{2}7,7,
{2}1/8,1/8,

{1}2/7,
E

ADVANCED


EXPERT

(132)
{1},

{1}4bx-1[4:3],
{1}5-8[4:3],
{1}2h[2:3],
{2}C,E1,
{2}1h[4:1]/2h[4:1],{4}1,8,
{2}7h[4:1]/8h[4:1],{4}7,5-1[2:1]/6,
{2},{4},1/8z4[4:3],
{2},{4},3bx,

{1}3h[2:3],
{2}4h[2:1],{4},3x/4x,
{4}5,46,4,3/5h[4:1],
{8}4x,4x,5x,5x,{4}3x,1b/7b,

{4}2h[4:1],4,6h[4:1],5,
{4}45,{8}3,3,{4}4,25,
{4}7h[4:1],5,3h[4:1],4,
{4}45,{8}6,6,{4}5,37,
{4}26,7,46,3-6[4:1],
{2},{4}8x,17,
{4}3h[4:1]/5,5,4/6h[4:1],4,
{2}3h[8:3]/7h[2:1],{4},1b,

{4}25,{8}3,3,{4}4,56,
{2}7-3[4:1],2-6[4:1],
{4}7h[4:1],{8}8,8,{4}7,78,
{4}5x/7x,45,{8}3,4,{4}2bx/5bx,
{2}3x-8[4:1],7-4[4:1],
{2}3^8[4:1],7^4[4:1]b,
{8}3,3,{4}34,{8}6,6,{4}5/6<3[2:1],
{2},{4},2x/6x,

{4}3x/5x,{8}6,6,{4}6h[4:3],{8}5,5,
{2}5h[4:1],{4}7x,7x,
{4}4x/6x,{8}3,3,{4}3h[4:3],{8}4,4,
{2}4h[4:1],{4}2,18,
{4}7h[2:1],8bhx[4:1],,1,
{4}2h[2:1],1bhx[4:1],,12,
{4}38,2bx/7bx,16,25,
{4}34,48,,4x/5x,

{4}1bh[8:1]/6bh[8:1],3h[8:1]/8h[8:1],1h[8:1]/6h[8:1],1h[8:1]/6h[8:1],
{8}78,78,{4}78,1b/6b,45,
{4}24,18,57,45,
{8}3,3,{4}24,{8}6,6,{4}57,
{4}1bh[8:1]/6bh[8:1],3h[8:1]/8h[8:1],1h[8:1]/6h[8:1],1h[8:1]/6h[8:1],
{8}78,78,{4}78,1b/6b,45,
{4}24,18,57,45,
{2}3h[4:1]/4h[4:1],5h[4:1]/6h[4:1],

{4}1bx/8bx,1x/8x,7x/8x,7x/8x,
{4}18,18,12,12,
{4}37,26,37,37,
{8}6,6,4,4,{4}35,1x/8x,
{4}1b/2b,18,78,18,
{4}12,18,78,15,
{4}34,56,34,34,
{2}5-1[4:1]/4-8[4:1],{4},2x/7x,

{4}1bh[8:1]/6bh[8:1],3h[8:1]/8h[8:1],1h[8:1]/6h[8:1],1h[8:1]/6h[8:1],
{8}34,34,{4}34,1b/6b,45,
{4}23,18,67,45,
{8}3,3,{4}24,{8}6,6,{4}57,
{4}1bh[8:1]/6bh[8:1],3h[8:1]/8h[8:1],1h[8:1]/6h[8:1],1h[8:1]/6h[8:1],
{8}34,34,{4}34,1b/6b,38,
{4}1bx/2bx,56,7bx/8bx,34,
{4}1bx/6bx,3bx/8bx<3[4:1]b,{2},
{8}12,12,{4}12,{8}78,78,{4}78,
{4}16,1>6[2:1]/6,{2},

{4},2b/8b,37,56,
{4}34,25,47,47,
{4}1hx[8:1]/2hx[8:1],1x/2x,7hx[8:1]/8hx[8:1],7x/8x,
{8}1,1,8,8,{4}17,2x/6x,
{8}3,3,{4}4,{8}7,7,{4}8,
{16}7bx/8bx,,,2bx/8bx,,,{8}3bx/7bx,{4},4x/5x,
{8}3,3,{4}24,{8}6,6,{4}57,
{2}8h[2:1],{4}2,3b-5[8:1]/7b-5[8:1],
{1},
E

MASTER

(132)
{1},

{2}5h[4:1]/7h[4:1],2h[4:1]/4h[4:1],
{4}46,3/5s1[8:3],{2},
{2}2h[2:1],{4}1,12,
{2}3h[4:1]/8h[4:1],{4}56,34,
{2}2h[4:1]/4h[4:1],5h[4:1]/7h[4:1],
{8}8,8,{4}1s5[8:3]/7,,6<5[4:3]b,
{1}2bx,
{4}2-4[8:1],8-6[8:1],1-5[8:1]b,8hx[4:1],

{4}6,4,3,1h[4:1],
{8}3,4,{4}5^8[8:1],2^5[8:1],7x,
{4}E7,E6,E5,E4,
{16}35,,,35,,,{8}26,{4}2-5[8:1]/6h[4:1],2x,

{8}7,7,{4}56,{8}2,2,{4}34,
{2}2^5[4:1]/6^1[4:1],{4},48,
{8}2,2,{4}34,{8}7,7,{4}56,
{4}3qq5[8:3],7h[2:1],,6bx,
{8}78,78,{4}16,{8}12,12,{4}38,
{16}7bx/8bx,,,4bx/5bx,,,{8}1bx/2bx,{4}1bx/2bx,45,
{2}8-4[8:1]/7-4[8:1],2-5[8:1]/1-5[8:1],
{4}4hx[4:1]/6hx[4:1],{8},37,{4}3h[4:1]/7-4[8:1],7x,

{4}1>5[4:1],5<1[4:1],1,5,
{4}8<4[4:1],4>8[4:1],8,4,
{8}3,3,5,5,2,2,8,8,
{8}1bx/7bx,1bx/7bx,1bx/7bx,35,35,2x/6x,{4}2x/6x,
{4}7^4[8:1],3,{2}1-6[8:1]*-4[8:1],
{4}2^5[8:1],6,{2}8v5[8:1]*v3[8:1],
{4}2h[8:1]/6h[8:1],{8}3,3,45,45,{4}36,
{8}1b/8b,1b/8b,2b/7b,3b/6b,{2}4b^1[8:1]b/5b^8[8:1]b,

{4}A1/B1/C,A8/B8/C,A7/B7/C,A6/B6/C,
{4}A5/B5/C,2x-6-3[8:3],{2},
{4}A8/B8/C,A1/B1/C,A2/B2/C,A3/B3/C,
{4}A4/B4/C,7^4pp6[8:3],{2},
{4}2,13,7,68,
{4}3,25,6,4>5[4:3]/7,
{4}5,5,4,4,
{2}3bhx[4:1]/6bhx[4:1],{4}8-4[8:1]/1-5[8:1],1x/8x,

{8}1h[8:1]/6,6,3/8h[8:1],3,1h[8:1]/6,6,1h[8:1]/5,5,
{8}26,37,26,26,{4}B3/B4f/B5/C,1x/8x,
{4}2-6[8:1],7-3[8:1],4-1[8:1],6,
{4}8-4[8:1]/7-4[8:1],7x/8x,2-5[8:1]/1-5[8:1],1x/2x,
{8}1h[8:1]/6,6,3/8h[8:1],3,1h[8:1]/6,6,1h[8:1]/5,5,
{8}26,37,26,26,{4}B3/B4f/B5/C,1x/8x,
{4}6^3[8:1],2^7[8:1],5-1[8:1],3,
{2}8h[2:1],{4}1x,3b/6b,

{4}2h[8:1]/5h[8:1],{8}25,6x,{4}4h[8:1]/7h[8:1],{8}47,3x,
{4}2h[8:1]/4h[8:1],2-5[8:1]/4,6-1[8:1],4,
{4}3h[8:1]/8h[8:1],{8}38,7x,{4}1h[8:1]/6h[8:1],{8}16,2x,
{8}34,5,{4}4/6p5[8:3],{2}5,
{4}4h[8:1]/7h[8:1],{8}47,3x,{4}2h[8:1]/5h[8:1],{8}25,6x,
{16}46,,,35,,,{8}26,{2}2/6-4[8:1],
{4}1h[8:1]/6h[8:1],{8}16,2,{4}3h[8:1]/8h[8:1],{8}38,7,
{2}4^1[8:1]/6-1[8:1],{4}4x/6x,3b/7b,

{4}1-5[8:1]/2-4[8:1],1x/2x,7-5[8:1]/8-4[8:1],7x/8x,
{8}28,28,{4}3-8[8:1]/7-4[8:1],3x/7x,2x/6x^3[8:1],
{4}1-6[8:1],5-8[8:1],4-1[8:1],7,
{4}7-4[8:1]/8h[4:1],7,1h[4:1]/2-5[8:1],2,
{4}7-5[8:1]/8-4[8:1],7x/8x,1-5[8:1]/2-4[8:1],1x/2x,
{8}17,17,{4}2-5[8:1]/6-1[8:1],2x/6x,3x^6[8:1]/7x,
{4}8-3[8:1],4-1[8:1],5-8[8:1],2-7[8:1],
{4}6-3[8:1],1>6[4:1],{2}8b,
{4}5h[8:1]/7h[8:1],5h[8:1]/8h[8:1],2h[8:1]/4h[8:1],1s5[8:3]/4h[8:1],
{2},{12}6,6,6,2,2,2,

{4}8-4[8:1]/1-5[8:1],1x/8x,36,35,
{4}4/6-1[8:1],2-5[8:1],8,8,
{2}4-2[8:1]/5-1[8:1],4-8[8:1]/5-7[8:1],
{4}5hx[8:1]/6hx[8:1],3hx[8:1]/4hx[8:1],2-6[8:1]/5,2x/8,
{4}8,5h[8:1]/7h[8:1],2h[8:1]/4h[8:1],4h[8:1]/5h[8:1],
{16}A7f/B7/E7,,,A1f/B1/E2,,,{8}B4/B5/E5f,,36,{4}36,
{4}5h[4:1]/7-1[8:1],7,2-8[8:1]/4h[4:1],2,
{8}57,58,{4}58,{8}24,14,{4}1-5[8:1]/4h[4:1],
{1}1bx,

Re:MASTER


名前:
コメント:

タグ:

+ タグ編集
  • タグ:
最終更新:2026年03月24日 19:43