EASY
BASIC
ADVANCED
EXPERT
MASTER
(144){1},{4}
,,,4-1[4:3],
,,,,
,,,8-5[4:3],
,,,,
,,,,
2h[4:1]/7,3,7h[4:1]/2,6,
2h[4:1]/7,3,7h[4:1]/2,6,
1h[4:1]/6,2,8h[4:1]/3,7,
1h[4:1]/6,2,8h[4:1]/3,7,
1h[4:1],2^7[4:1],,,
78,34,56,2,
2^5[8:1],,6^1[8:1],,
8^5[8:1],,4^1[8:1],,
{8}
7-4[4:1],7,8-3[4:1],,,,,,
3-8[4:1],3,4-7[4:1],,,,,,
{4}
2h[4:3],3,8,7,
45,2h[2:1]/6h[2:1],,,
7h[4:1],6h[4:1],5h[4:1],4h[4:1],
3,2b/3,7/8b,,
2h[4:1]/6,1,3h[4:1]/5,1,
7h[4:1]/3,8,6h[4:1]/4,8,
2h[4:7]/8h[4:1],,7,3-7[2:1],
,,,,
3h[4:3]/4,5,4,2,
6h[4:3]/5,4,5,7,
3,6,27,36,
1^4[4:1]/8^5[4:1],,,,
8h[4:1]/3,1,1h[4:1]/6,8,
8h[4:1]/1,3,1h[4:1]/8,6,
5h[1:1],6,7,8,
4h[4:3],3,2,1,
5h[4:1]/1,6,6h[4:1]/8,3,
4h[4:1]/8,3,3h[4:1]/1,6,
7h[1:2]/2h[4:1],,1,5-8[2:1],
,,,,
,,4b/5b,8-3[8:1]/7-4[8:1],
,,8,26,
1,37,3/6b,1-6[8:1]/8b,
,8-3[8:1],,2^7[4:1],
,,18,3-8[8:1]/4-7[8:1],
,,1,37,
8,26,3,15,
6,4^1[4:1]/8,,8^5[4:1],
,,4b/5b,8-3[8:1]/7-4[8:1],
,5-2[8:1],,1-6[8:1],
,8-3[8:1],,4-1[8:1]/5-8[8:1],
,2-7[8:1]/3-6[8:1],,8^3[4:1],
,,18,3-8[8:1]/4-7[8:1],
,4-7[8:1],,8-3[8:1],
,1-6[8:1],,1^4[2:1]/8^5[2:1],
,,,7^2[2:1],
,,,,
,,,5-8[4:3],
,,,,
,,,1-4[4:3]/8-5[4:3],
{1},
,,,
E
Re:MASTER
(144)
{1},{16}28,,,56,,,35,,,78,,,12,,,4/6b<3[16:9],{1},
{16}68,,,13,{8},,,6,5,4,{4}3,2,1-5[8:1],1b,
{16}38,,,1,1,,28,,46,,,8,8,,17,,{8}35,4,46,57,{2}6/8-4[8:1],
{16}61,,,8,8,,71,,53,,4,5,4,,82,,{8}64,5,53,42,{2}3/1-5[8:1],
{8}7h[2:1],,8,1,2h[2:1],,1,8,7,68,15,24,3,,8,1,
2>6[4:1],,1,8,7<3[4:1],,8,1,{4}2^7[4:1],7^4[4:1],4,,
{8}1-6[8:1]/2-5[8:1],38,1b/2b,,{16}4,7,3,8,{8}2,12,
8-3[8:1]/7-4[8:1],61,8b/7b,,{16}5,2,6,1,{8}7,87,
{16}12,,,4,{8}4,3,2,18,27,36,{16}4qq1[2:1]/5pp8[2:1],,,45,{2}4b/5b,{16},,2,7,
{8}2,3,48,5,7,6,51,4,{16}2,,2,1,2,,7,8,{2}7h[4:1],
{16}34,,,5,{8}25,6,{2}7h[4:1]/1-5[8:1],{8}46,4,37,3,{2}2h[4:1]/8-4[8:1],
{16}2,,,1,{8}1,28,{4}3/7^4[4:1],4^1[4:1],1<3[2:1],,,1,
{8}1,2,3,4,5,46,37,28,{2}1p5[8:1]*q5[8:1],8q4[8:1]*p4[8:1],
{8}1,2,3,48,,15,15,,{1}2<3[2:1]/7h[4:3],
{16}68,,,5,{8}15,4,{2}2h[4:1]/3-8[8:1],{8}12,3,48,5,{2}7h[4:1]/6-1[8:1],
{16}7,,,8,{8}8,71,{4}6/2^5[4:1],5^8[4:1],8>6[2:1],,,8,
{8}8h[2:1],,1,2,3h[2:1],4,5,6,{2}7q3[8:1]*p3[8:1],2p6[8:1]*q6[8:1],
{8}7-4[8:1]/8-3[8:1],16,7b/8b,,2-5[8:1]/1-6[8:1],83,2b/1b,,
{2}2b/7b,{16}1,8,2,7,3,6,4,5,3,6,2,7,{4}1-5[8:1],1b^4[8:1]*^6[8:1],1bw5[8:1],
1b,,18,{8}12,47,{4}1h[4:1]/2h[4:1],,4/7-4[8:1],7/1-5[8:1],
1b/8h[4:1],{8},2,16,38,25,47,{4}1h[4:1]/6,8-4[8:1],8b^5[8:1]*^3[8:1],8bw4[8:1],
8b,,81,{8}87,52,{4}8^3[4:1]/7^4[4:1],,,{8}7,8,
1h[4:1]/6h[4:1],,,7,83,61,74,52,{4}8h[4:1]/3,2-6[8:1],2b^5[8:1]*^7[8:1],2bw6[8:1],
2b,,48,{8}13,57,{4}1h[4:1]/3h[4:1],,4/7^4[8:1],7/1-5[8:1],
1b/8h[4:1],{8},2,68,13,24,57,{4}8h[4:1]/6,7-3[8:1],7b^4[8:1]*^2[8:1],7bw3[8:1],
7b,,15,{8}57,13,{4}5-1[4:1]/7-3[4:1],,,{8}4,3,{2}2-5[8:1]/6-1[8:1],
{32},{6}4b/8b,{32}3b/7b,,,,,{48}2b/6b,,,,,,,{4}1bpp4[4:5]/5bpp8[4:5],1b/5b,,,{1},
{16}2h[8:1]/8h[8:1],,,4h[8:1]/6h[8:1],,,7h[8:1]/1h[8:1],,,5h[8:1]/3h[8:1],,,
2h[8:1]/7h[8:1],,,4b>5[16:9]/5b<4[16:9],{1},{16}68,,,1-6[16:3]/3-8[16:3],{4},,,
{96},15,,,,,,,,,,,,,{48}37,,,,,,,,,,,48,,,,,,,26,,,,,,,,,,,{96},{48}1b/8b,,,,,,,{1}4b/5b,,,,E
- Re:MASTER譜面を追加しました。修正等ありましたらよろしくお願いします。 -- けもがみ (2026-03-23 20:46:45)
最終更新:2026年10月04日 17:50