アットウィキロゴ

しゅ~しん?変身☆ハカイシンzzZ

アーティスト YOFUKASHi Sound Team feat.編井うも

BPM BASIC ADVANCED EXPERT MASTER Re:MASTER
180 4 8 10+ 13+ -

EXPERT MASTER Re:MASTER
譜面制作者 アマリリス サファ太 -

BASIC

(180)
{1},

{1},
{1},
{1},
{1},
{1}1x,
{1}1,
{1}8,
{1}1x/8x,

{2}1,1,
{1}1/2,
{2}8,8,
{1}7/8,

{2}1,1,
{2}2,2,
{2}3,3,
{1}4x/5x,
{2}5,5,
{2}6,6,
{2}7,7,
{1}1x/8x,

{4}B8,,,
{4}B7,,,
{4}B6,,,
{4}B5,,,
{4}B4,,,
{4}B3,,,
{2}B2,
(120)
{4},C,,,

(180)
{1}8-5[4:3],
{1},
{1}4-1[4:3],
{1},
{1}1x/8x,

{4}8bx,8,8,,
{2}7,7,
{4}6,6,6,,
{2}4x/5x,4x/5x,
{4}4,4,4,,
{2}3,3,
{4}2,2,2,,
{1}1x/8x,

{4}1,1,1,,
{2}2,2,
{4}3,3,3,,
{2}4x/5x,4x/5x,
{4}5,5,5,,
{2}6,6,
{4}7,7,7,,
{2}8,8,

{1}1h[1:1]/8h[1:1],
{1},

{1}7h[1:1]/8h[1:1],
{1},
{1}5h[1:1]/6h[1:1],
{1},
{1}3h[1:1]/4h[1:1],
{1},
{1}1h[1:1]/2h[1:1],
{1},

{2}1b,1,
{2}1/8,1/8,
{4}2x,2x,2x,,
{4}3,3,3,,
{4}4,4,4,,
{4}5,5,5,,
{4}6,6,6,,
{4}7,7,7,,

(150)
{1}1x/8x,
{1},

(155)
{1}8-4[4:3],
(160)
{1},
(170)
{1}1-5[4:3],
(180)
{1},

(190)
{4}8x,8x,8x,,
{1}1/8,
{4}1,1,1,,
{1}1/8,
{2}7,6,
{2}5,4,
{2}3,2,
{1}1x,

{1}E1,
{1}E2,
{1}E3,
{1}E4,
{1}E5,
{1}E6,
{1}E7,
{1}E8,
{1}Ch[1:1],
{1},

{1}1hx[1:1]/8hx[1:1],
{1},
{2}1x/8x,1x/8x,
{1}1bx/8bx,
{4}1,1x,1,,
{4}2,2,2,,
{4}3,3,3,,
{2}4/5,4/5,

{4}5b,5,5,,
{4}6,6,6,,
{4}7,7,7,,
{4}8,8,1/8,,
{4}7,7,7,,
{4}6,6,6,,
{4}5,5,5,,
{4}4,4,4,,
{1}4b/5b,

{4}3,3,3,,
{2}1/2,1/2,
{4}8,8,8,,
{2}7/8,7/8,
{4}1,1,1,,
{1}1x/8x,
{1}Ch[8:7],
E

ADVANCED


EXPERT


MASTER

(180)
{1},

{8}6-3[4:1]*q3[4:1],,,,,,,2/4,
{8},3/5,,5h[4:1]/6,,7,7,,
{8}8h[4:1],,6h[4:1],,4,4,,3-1[8:1],
{8},8-4[8:1]*-6[8:1],,,,3x/5x,3x/5x,,
{16}2,,3,,5h[16:3],,,4,6,,2,,3/5,,7h[4:1],,
{8},B1/E2,B5/E6,Ch[4:1],,1x,1x,,
{8}2-8[8:1]/8-6[8:1],,2/8,,5,5-1[8:1],,3bz7[8:3],
{8},,,,,8x,8x,,

{2}2h[4:1]/4h[4:1],5h[4:1]/7h[4:1],
{8}3h[4:1]/4h[4:1],,,,5/7,8x,8x,,
{8}1-6[8:1]/2-5[8:1],,,,4/7,4/7<2[8:5],,Cf,
{4},,,2b/8b,

{8}7h[4:1],,5>3[4:1],,6,,5,5,
{8}2h[4:1],,4<6[4:1],,3,,4,4,
{8}7,6,5,4,6,5,4,3h[4:1],
{16},,4,4,2-6-3-5[2:1],,1,,8x,,,,,,,,
{8}8b,,4/7<5[4:1],,2,,3,3,
{8}4-8[8:1],,2-6[8:1],,7x,,7,6,
{8}5,4/6,3,2,3/5,6,1s5[4:2]/7,1/7z3[8:3],
{4},,,3/5,

{4}3h[4:3],,5,
{4}6h[4:3],,8,
{4}1h[4:3],,3,
{4}4h[4:1],,3/4,
{4}3/4<8[2:1],,3,
{4}5>1[2:1],,6,
{4}4<8[2:1],,
(120)
{4}3z7V53[4:3],,,,

(180)
{8}1hbx[4:1],,2,3<6[8:1]/8bx,,7,7h[4:1],,
{8}8hb[4:1],,7,1/6<1[8:1],,3b,3b,,
{8}2/4,2,6,6,5/7,7,3,3,
{16}3,4,3,4,2,5,2,5,1,6,1,6,8,7,8,7,
{4}1b,2b,3b/5<8b[8:1],E5f,

{8}1b-5[8:1]/2b-5[8:1],,1b/2b,,3/7,3-5[8:1]/7-1[8:1],,3bv5b[8:1]/7bv1b[8:1],
{8},,,2bx/8bx,,2/6,2/6,,
{8}5<3[4:1],,3,4,5h[4:1],,6,4/7,
{8}3b/8b,,3/4,2b-8[8:1]/5,,2b-5[8:1]/8,,2b/7-5-1b[4:1]*-5>2[4:1],
{16},,,,Cf,,,,,,,,1/8,,2,4,
{8}3,4/5>2b[8:1],6,7h[4:1],,1,2b/6b,,
{16}1/2,,1/2,,3,4,3,,4/6,,8<2[8:3],,1,,2b,,
{4},B5f/E5/E6,1w5[8:1],1b,

{8}3/7,8,3/7,2,3/5,4/6,5/7,8b-6b[8:1],
{8},8/1b-5b[8:1],,1/2b,,3,5,1,
{8}7V53[4:1]/8,,3,2,1-4[8:1],1-7[8:1],1x,1bx,
{8},B5/B6/E5/E6f/E7,,7/8,7/8-2[8:1]*-5[8:1],,8b,,
{16}3x,,3x,,2,1,2,,6x,,6x,,7bx,8bx,7bx,,
{8}1/6,2/5,3>6[4:1]/4q5[4:1],,,,,,
{16}7x,,7x,,3,4,3,,1x,,1x,,7,5,7,5,
{16}8,4,8,4,8,4,{48}E8,B7,B6,{16}E6,,,{48}E3,B3,B4,{16}E5,,,1x/7x,,

{1}7bxp4[4:2]/1bxq4[4:2],
{8}A2/A3/A4/A5/A6/A7/B4/B5/D3/D4/D6/D7/Cf,,,,1,1,8,8,

{4}2>5[8:7],,,8-5b[8:1],
{8}8b,,,,,5/6,7x,,
{8}B5/B6/E6/E7,,B3/B4/E3/E4,,1,8,7>3[4:1],,
{4}3v5[4:1],5,4-8[8:1],,
{8}A1/A2/B1/B2/D2f/D3/E2/E3,,,7,7h[4:1],,5x,,
{8}3hbx[4:1],,,2/4,2/4,,1>7[4:3]/5,,
{8}8,8,8,8,8,8,8,8,
{16}2,1,,3,4,,7,8,,6,5,,4b/7bz3[4:2],,,,

{1}2h[4:3],
{8}3h[8:1]/5h[8:1],,3h[8:1]/5h[8:1],,4-1b[8:1],5x/6x,7bx/A4f,,
{16}7,8,7,,2,1,2,,5/7,,6,,2/4,,3,,
{8}5hbx[8:1]/7hbx[8:1],,3hbx[8:1]/4hbx[8:1],,1/5,1/5,B3/B4/B6/B7/D4/D7/E4f/E7,,
{4}8<4[4:1],,1x-7-2-6-3-5[4:5],5x,
{4}6x,7x,8hbx[4:1],,
{8}7,6,5,4,D7,D6,D5,D4,
{8}3x-1[8:1]*-7-5[4:1],3x,,,8x>4[8:1]*<4[8:1],8x,,,

(150)
{1}B3/B4/B5/E3/E6/Cf,
{4},1x,2x,3x,

(155)
{8}4h[8:1],,4h[8:1],,3/5,3h[8:1]/5h[8:1],,,
(160)
{8}5h[8:1],,5h[8:1],,4/6,7x,7x,,
(170)
{4}5h[8:1]/6h[8:1],5h[8:1]/6h[8:1],4h[8:1]/5h[8:1],3h[8:1]/4h[8:1],
(180)
{1}3/4qq7[2:1]*q7[2:1],

(190)
{16}1b/8b,,,,3/4,,,2hbx[16:5]/5hbx[16:5],,,,,,,3,4,
{16}3,,8,,2,,6,5,6,5,6,,4/7,,,,
{16}1b/8b,,,,3/4,,,2hx[16:5]/5hx[16:5],,,,,,,3,4,
{4}3>5[8:3]*q5[8:3],,,2x/8x,
{8}7-3[8:1],7,8,1,2-5[8:1],2,8,7,
{8}6-2[8:1],6,5,4,3-8[8:1],3,4,5,
{8}6-1[8:1],6,2-5[8:1],2,8,8,8,7bz3[8:5]/3bz7[8:5],
{1},

{24}E3,E4,E5,{8},,,,,,,
{24}A6,E6,,{8},,B3/E3,,,C,,
{24}E7,B6,,,{6},,A5/B5,A4/B4,A3/B3,
{1}A2/B2/Ch[2:1],
{4}1,1,2,2,
{4}3,3,4,3x/5x,
{8}4,4,6,6,7-1-4[2:1]/5-1>3[2:1],,,,
{4},,3/4,3/4,

{8}1h[4:1]/2h[4:1],,,,3/8,3/8,,A5/A6/B5/B6/D5/D6/D7/E5/E6f/E7/Ch[8:7],
{1},

{1}1h[4:3]/8,
{16}2/5,,3,4,2,,1/7,,6,5,7,,4w8[8:1]/8,,,,
{8},,2bx/6bx,,3/5,2,3/5<8[8:1],6,
{8}2h[4:1],,1,3b-5b[8:1]/7b-5b[8:1],,3b-1-5b[4:1]/7b-1-5b[4:1],,3b/7b,
{8},,B3/B4/B6/B7/E4/E7f,,,,8,7,
{8}6pp8[4:1],5>1[8:3],,,,,7b,,
{24}1/7,6x,5x,{8}4x,{24}2/8,3x,4x,{8}5x,7/8,1/6,2/5,3/4-8-6[4:1],
{8},2,2,,1w5b[8:1],,1x,,

{16}3b/7b,,2,1,4b,,7,8,5b,,3b/4b,,2b/5b,,1b/6b,,
{16}7,8,6-4b[8:1],1,7,8,6,,2b,,2,1,3,8,2,1,
{16}3hb[8:1],,5,4,6hb[8:1],,4,5,3b,,1-5[8:1]/2-4[8:1],,3b/8b,,1b/2b,,
{8},7/8,7/8,1/6,2v5[8:1]/5<8[8:1],3/4,2b/5b,,
{8}4bx/7bx,,7/8,2bx/5bx,,3/4,4/5,5bx>2[8:1]/6bx,
{8},1-5[8:1],8,1bx/7bx,,4/6,8v5[8:1]/2v5[8:1],,
{8}2bx/8bx,,3/4,1bx/6bx,,1/2,1/2,4bx/8bx-6[8:1],
{8},5bx-1[8:1]/8x,,1bxw5[8:1]/5x,,1bx,,2/8,

{16}2b/8b,,,,1,1,1,1,1-5b[8:1],1,1,1,,,,,

{4}4bx/6h[8:13],,,,
{8},,,,,5,7xV53[4:1],,
{8}3<7[4:1],,2,,1x,1x,8x,8x-4[8:1],
{8},4-2[8:1]*-6[8:1],,,,1,1,,
{8}2,2h[8:1],4,4h[8:1],3,3h[8:1],8,,
{8}7,7h[16:1],5,5h[16:1],6,7x/8x,1bx/6bx,,
{16}3,4,3,4,2,5,1,6,8,7,8>3b[8:1]*q4b[8:1],7,8,7,,,
E

Re:MASTER


  • 正確なBPM変化が分からなかったので助けてください -- でびゅー (2026-01-03 20:48:36)
  • 多分合いましたありがとうございます -- でびゅー (2026-01-03 22:04:32)
名前:
コメント:

タグ:

+ タグ編集
  • タグ:
最終更新:2026年01月05日 19:21