BASIC
ADVANCED
EXPERT
(280){1}Cf/B2/B3/B4/B5/B6/B7,,B8/B7/E8f,B4/B3/E4f,B8/B1/E1f,,B5/B6/E6f,B1/B2/E2f,{2}8h[1:3],,B6,B5,B4,B3,{4}1,2,8,7,{4}6h[4:5]/4,4,5,5,2,2,3h[4:5]/5,5,4,4,7,7,{8}1h[4:1]/2h[4:1],,,8h[4:1]/7h[4:1],,,5h[4:1]/6h[4:1],,,4h[4:1]/3h[4:1],,,1x,,2hx[1:2]/8hx[1:2],,{1},,E2,E3,E4,E5,E6,E7,E8,1>4[4:1]b/8<5[4:1]b,{4}3h[4:7]/4,4,1,1,5,5,8,8,6h[4:7]/5,5,8,8,4,4,1,1,2h[4:1],4h[4:1],5h[4:1],7,7h[4:1],5h[4:1],4h[4:1],2,2>5[4:1],,7-3[4:1],,1,1,2x/8x,,3h[4:5]/4,4,2,2,4,4,1/5,,7,7/8,2,1/2,3/8,3/8,4/7,4/7,6hx[4:5]/5,5,7,7,5,5,8/4,,{8}3/4,3/4,,2/1,2/1,,7/8,7/8,,6/5,6/5,,3x/4x,,1b/5b,,
{2},,6h[1:1],5,4h[1:1],6,5h[1:1],4,3-6[4:1],7-2[4:1],4-1[4:1],8-5[4:1],1h[4:3],8h[4:1],{8},3x/6x,3x/6x,,1x/8x,,2x/7x,,{4}3h[4:3],4,5,4,7h[4:3],5,6,5,2h[4:3],1,8,1,3/8,3/8,4/7,4/7,6h[4:3],5,4,5,2h[4:3],4,3,4,7h[4:3],8,1,8,6/1,6/1,5/2,5/2,{1}3<6[8:5],8>3[8:5],5<8[8:5],2>5[8:5],6p3[4:5],,{2}2h[2:1],4h[2:1],5h[2:1],7h[2:1],{8}1,1,8,8,1,1,8,8,1,1,8,8,1,1,8,8,1,1,8,8,1,1,8,8,1,1,8,8,1,1,8,8,1,1,8,8,1,1,8,8,1,1,8,8,1,1,8,8,1x,2x,3x,4x,5x,6x,7x,8x,{1}Cf,
{4}2,1/2,7,8/7,2,1/3,7,8/6,1,3/4,8,5/6,1,3/4,2b/6b,,{2}1x/8x-3[4:1],2-5[4:1],6-1[4:1],4-7[4:1],8<5[4:1],1>4[4:1],{4}8,6/5,3b/7b,,2,1/2,7,8/7,3,2/4,6,5<4[4:3]/7,{1},{12}7x/8x,,7x/8x,,7x/8x,,{2}1bx/6bx,8x/1x-6[4:1],7-4[4:1],3-8[4:1],5-2[4:1],8-4[4:1],,{4}2x/6x,2x/6x,1b/7b,,2hx[4:7]/8,8,3,3,1,1,4,4,7hx[4:7]/1,1,6,6,8,8,5,5,2hx[4:3]/1,3,8,4,7hx[4:3]/8,6,1,5,{2}1x/8x-6[4:1],5x-1[4:1],8x-4[4:1],3x-1[4:1],{4}8,8,1,1,7h[4:1],5h[4:1],4h[4:1],2,1,1,8,8,2h[4:1],4h[4:1],5h[4:1],7,7,5/6,2,3/4,8,5/6,1,3/4,5/7,6/8,2/4,1/3,7/8,6/5,3/4,2/1,
{1}3bq5<4[4:13]/8b,,,{4},,,7b/8b,{1}6bp4>5[4:13]/1b,,,,{2}4h[2:7],D6,D3,B6,B2,D7,D2,A8,5h[2:7],D4,D7,B3,B7,D3,D8,A1,2>5[2:1],,6h[2:1],5,4/5,3h[2:1],4,4/5,{4}6,6,5,6,3,3,4,3,2h[4:1]/4h[4:1],,7h[4:1]/5h[4:1],,3/4,5/6,4h[4:1]/5h[4:1],,3,7x/8x,6,2x/1x,4,7x/8x,5,2x/1x,3,1x/7x,6,
8x<5[4:1]/2x>5[4:1],,,2b/8b,,6,7x/8x,5,1x/2x,4,7x/8x,3,1x/2x,4,7x/8x,5,1x/2x,6>3[4:1],,
1x,,2h[4:1],3h[4:1],4h[4:1],5,7h[4:1],6h[4:1],5h[4:1],4,1h[4:1],2h[4:1],3h[4:1],4h[4:1],5h[4:1],6h[4:1],7h[4:1],8h[4:1],1>4[4:1],,8<5[4:1],,
1-4[4:1],,8-5[4:1],,2-6[4:1],,8V64[4:3]*V24[4:3],,{1},{8}3,3,4x,4,2x,2,1x,1,5x,5,6x,6,8,8,7x,7,2,2,4x,4,5x,5,7x,7,{4}1x,7x/8x,6x/5x,4bx/8bx,{8}2,2,1x,1,8x,8,7x,7,6x,6,5x,5,4,4,3x,3,2,2,1x,1,8x,8,7x,7,6x,6,5x,5,4x,4,3x,3,{4}1,8,7,5/6,{1}4>1q5[8:5],{4}8,1,2,4/3,{1}5<8p4[8:5],{4}2h[4:3],1,3,1,7h[4:3],8,6,8,3,4,2/5,1/6,7/8,5/6,3/4,2bh[4:7]/6bh[4:7],{1},,
{1}Cf/8bx<1[4:5],,2bq7[2:1],6bq3[2:1],4bxq5[4:5]/5bx<4[4:5],,7b-5[8:3]/8b-4[8:3],2b-4[8:3]/1b-5[8:3],{2}8h[1:3],{8},{24},,,E6,,,E5,,,{2}E4,E3,E7,E1,{4}2,1,8,7,5x/6hx[4:3],4,3,2,8x/1hx[4:3],7,6,5,3x/4hx[4:3],2,1,8,6x-2[4:1],,3x-7[4:1],,8b,,1/2,1/2,4/3,4/3,5/6,5/6,8/7h[4:3],6,1,5,1/2h[4:3],3,8,4,1/8,1/8,7/6,7/6,5/4,5/4,3/2,3/2,8x/1x,,{8}8bx/1bx,8b/1b,8bx/1bx,8b/1b,2bx/7bx,E
MASTER
(280)
{1},,,{16}2bx,3,4,5,6,7,8,1,2,3,4,5,6,7,8,1,2,3,4,5,6,7,8,1,2,3,4,5,6,,,,8bx,7,6,5,4,3,2,1,8,7,6,5,4,,,,1bx,2,3,4,5,6,7,8,1,2,3,4,5,,,,8bx,7,6,5,4,3,2,1,8,7,6,5,4,3,2,1,8,7,6,5,4,3,2,1,8,7,6,5,4,,,,2bx,3,4,5,6,7,8,1,2,3,4,5,6,,,,8bx,7,6,5,4,3,2,1,8,7,6,5,4,3,2,1,
{1}8bxz4[2:5],,,
{4}35,35,26,26,37,{8}2,1,3,,45,,26,,7,8,6,,45,,37,,2,1,3,,48,,7,5,6,3,4,2,7,8,6,2,1,3,48,48,4b/8b,,
{1},
{2},
{6},4x,5x,
{1}3xv5[4:7],6,6v4[4:7],3,3p5[4:7],6,
{4}7,7-4[4:1],3,3,
{8}2,2,4,4,3,,2b/5b,,1-5[8:1],,8bx,,7,7,5,6,4^1[8:1],,7,,5^8[8:1],,2,,3,3,4,2,6,6,5,7,4-1[8:1],,8,,7^4[8:1],,8,,2h[4:3],,,,5,6,7,8,1-6[8:1],,3,,2-5[8:1],,8,,1,,28,,7,5,6,,34,,12,,3b/7b,,,,
{16}8,,B5,E5,8,,B5,E5,8,,B5,E5,8,,B5,E5,1,,B5,E5,1,,B5,E5,1,,B5,E5,1,,B5,E5,2,,B5,E5,2,,B5,E5,1,,B5,E5,1,,B5,E5,2,,B5,E5,
{4}1,38,26,
{16}1,,B4,E5,1,,B4,E5,8,,B4,E5,8,,B4,E5,7,,B4,E5,8,,B4,E5,
{2}1-5[8:1],
{8}6,6,6,8,8,8,1,1,1,3,3,3,5,5,
{4}4b/6b,3>6[4:7],,4,4,4,,5,5,5p4[4:5],,1,1,1,,B2f/E2/E3,,
{8}8-5[4:1],,5-2[4:1],,1,1,1,,8-3[4:1],,3-6[4:1],,7,7,7,,8-4[4:1],,4V61[8:3],,1,,2,2,,38,38,,7,5,4/8^5[4:1],,5p8[4:1],,8^5[4:1],,5p8[4:1],,8^5[4:1],,5p8[4:1],,8^5[4:1],,5p8[4:1],,8^5[4:1],,5p8[4:1],,8^5[4:1],,5p8[4:1],,8,,5,,1,,2x/6x,,1^4[4:1],,4q1[4:1],,1^4[4:1],,4q1[4:1],,1^4[4:1],,4q1[4:1],,1^4[4:1],,4q1[4:1],,1^4[4:1],,4q1[4:1],,1^4[4:1],,4q1[4:1],,1^4[4:1],,4q1[4:1],,1,,4x,,2bx/6bx,,
{1}1pp4qq1[2:7]b/8qq5pp8[2:7]b,,,,
{8}2h[1:1],,,,,,,4,4h[1:1],,,,,,,5,5h[1:1],,,,,,,7,
{2}7,45,
{16}3bx,4x,3x,4x,3x,4x,3x,4x,3x,4x,3x,4x,3x,,,,6bx,5x,6x,5x,6x,5x,6x,5x,6x,5x,6x,5x,6x,,,,2bx,3x,4x,2x,3x,4x,2x,3x,4x,2x,3x,4x,2x,,,,7bx,6x,5x,7x,6x,5x,7x,6x,5x,7x,6x,5x,7x,,,,1bx,2x,3x,4x,1x,2x,3x,4x,1x,2x,3x,4x,1x,,,,8bx,7x,6x,5x,8x,7x,6x,5x,8x,7x,6x,5x,8x,,,,E2,B2,B3,E4,E7,B6,B5,E5,E3,B3,B4,E5,E8,B7,B6,E6,
{2}C,
{4},1-4[8:1]/8-5[8:1],{16}1b/8b,B3/B7/Cf/E3/E7,,,,,,,
{8}2,2,8,1,7-3[8:1],,78,,2-6[8:1],,12,,8bh[4:1],,5,7,1,8,2,4,1,8,1-4[8:1]*-6[8:1],,1b,,,,{12}6b,5,6,4,5,4,6,5,6,4,,,3b,4,3,5,4,5,3,4,3,5,,,7b,5,7,3,5,3,
{4}7,28,
{16}1b,7,1,7,
{8}1,,2x/6x,2x/6x,2x/6x,,45,,3,4,1,8,5,6,2-5[8:1],,28,,7-4[8:1],,1pp8[2:1]/7,,1,,5,,5,,5,,{6}8bx/E6f,1b/E7f,2b/E8f,
{2}3b/E1f,
{8}2,2,1,3,7,7,8,6,3,3,4,2,6,6,5,7,1,1,3,3,5,5,7,7,1V38[4:1],,,,7b,,16,,38,,2-5[8:1],1,2,,7,,56,,7-4[8:1],8,7,,2,,34,,2^5[8:1],1,2,,7,,56,,3-8[8:1]/4-8[8:1],,3b/4b,,,,17,,6-1[8:1],5,6,,3,,12,,3-8[8:1],4,3,,6,,78,,6-1[8:1],5,6,,3,,12,,7-3[8:1]/8-4[8:1],,7b/8b,,,,6,6,5,5,6,,5/7h[4:1],,8,7,3,4,2,1,5,6,
{16}8b,1,
{8}2,6,4,8,2,4,1,
{16}5b,6,
{8}7,2,8,
{16}1b,2,
{8}3,4x/8x,,2b-5[8:1],,1^6[8:1]/2,,1,,4-8[8:1],,4/7b^4[8:1],,7,,1-5[8:1],,18,,{16}8x,7,6,5,2x,3,4,5,8x,7,6,5,2x,3,4,5,1x,8,7,6,1x/5,2,3,4,1x/5,8,7,6,1x/5,2,3,4,{1}1bh[2:13]/5bh[2:13],,,,,,,
{16}A7,D7,A6,D6,A5,D5,A4,D4,{2}A3/B3,2h[2:1]/4h[2:1],,E3/E5,E4/E6,3h[2:1]/5h[2:1],,E4/E6,E5/E7,4h[2:1]/6h[2:1],,E5/E7,E6/E8,6h[4:1],5/7>6[4:5],Cf,,
{4}1b,1^4[2:1],8,7,6,6^1[2:1],5,4,3,3^6[2:1],2,1,8h[4:1],{8}7,8,6,,35,,2bh[4:1],,4,3,5,4,6,5,7bhx[4:1],,5,6,4,5,3,4,2bh[4:1],,4,3,7bh[4:1],,5,6,47,,25,,
{16}1,8,1,8,
{4}1,2b/7b,1-5[8:1],6-1[8:1],3-6[8:1],7-3[8:1],1-4[8:1],6-1[8:1],5-2[8:1],8-4[8:1],1-6[8:1],5-1[8:1],4,3qq8[2:1],7^4[4:1],,,15,2v5[8:1],6-1[8:1],3-8[8:1],7v4[8:1],1-5[8:1],6^3[8:1],2^7[8:1],6-1[8:1],2V48[4:1],7,6,1pp3[4:1]/5pp7[4:1],,,,
{16}A3,E4,E5,A5,B2,C,B6,A6,A1,E1,E8,A7,
{4}5x,34,12,
{8}38,38,3b/8b,,
{16}A7,E7,E6,A5,A1,E2,E3,A3,B8,C,B4,A4,
{4}1hx[4:1],7,2-5[8:1]/6-1[8:1],2b/6b,,
{16}A8,E1,E2,A2,B7,C,B3,A3,A6,E6,E5,A4,
{4}1x,78,56,
{8}24,24,24,,
{16}A4,E5,E6,A6,A2,E2,E1,A8,A3,B3,C,B7,A1/A7,B1,C,B5,
{4}8x/A5,8,A2/A3/A6/A7/D3f/D7,,
{8}1b,4h[16:1],1,4h[16:1],1,4h[16:1],1,4h[16:1],1x-3[8:1],4h[16:1],1x,4h[16:1],1x-7[8:1],4h[16:1],1x,4h[16:1],1bx,4h[16:1],1,4h[16:1],1,4h[16:1],1,4h[16:1],1x-5[8:1],4h[16:1],1x,,4x/6x,,37,,8b,5h[16:1],8,5h[16:1],8,5h[16:1],8,5h[16:1],8x-6[8:1],5h[16:1],8x,5h[16:1],8x-2[8:1],5h[16:1],8x,5h[16:1],8bx,5h[16:1],8,5h[16:1],8,5h[16:1],8,5h[16:1],8x-4[8:1],5h[16:1],8x,,5x/3x,,62,,7,7,5,5,4,,3hx[4:5]/5x,,B4/E5,,B2/E3,,B8/E1,,B6/E7,,4,3,25,3,4,5,4x/6hx[4:5],,B5/E5f,,B7/E7f,,B1/E1f,,B3/E3f,,5,6,47,8,1,,2h[4:5]/8,,B7f/E8,,B5f/E6,,B3f/E4,,B1/E2f,,
{4}8-5[4:1],5-2[4:1],2-7[4:1],7-4[4:1],4V28[4:1],8V64[4:1],4w8[8:1],{16},Cf,,,
{1},,
{16}2bx,3,4,5,6,7,8,1,2,3,4,5,6,7,8,1,2,3,4,5,6,7,8,1,2,3,4,5,6,7,8,1,2/7bx,6,5,4,3,2,1,8,7,6,5,4,3,2,1,8,3bx/7,4,5,6,7,8,1,2,3,4,5,6,7,8,1,2,3/8bx,7,6,5,4,3,2,1,8,7,6,5,4,3,2,1,8,7,6,5,4,3,2,1,8,7,6,5,4,3,2,1,4bx/8,5,6,7,8,1,2,3,4,5,6,7,8,1,2,3,1bx/4,8,7,6,5,4,3,2,1,8,7,6,5,4,3,2,
{1}1bs5[2:5]b/5b,,,
{2},
{8}47,,6,5,
{1}4^1[4:1]/E7/E8f,5^8[4:1]/E3f/E2,
{4}1b^4[4:1]b,,8b^5[4:1]b,,3b,12,1b/8b,78,
{8}6bh[4:1],,1,1,2-5[8:1]b,,8,8,7-4[8:1]b,,1,1,2-5[8:1]b,,8,8,7-4[8:1]b,,3,3,2^7[8:1]b,,5,5,6^3[8:1]b,,8,8,1,,2x/7x,,
{16}1b,8,1,8,1,8,1,8,1b,8,1,8,1,8,1,8,1b,8,1,8,1,8,1,8,1b,8,1,8,1,8,1,,
{2}2bx/7bx,
{8}2b/6,2/6b,2b-7[8:1]/6-3[8:1],2/6b,
{1}2b/6,,
E
Re:MASTER
- EXノーツ、配置ミスを修正しました。 -- けもがみ (2026-01-03 22:38:39)
- EXPERT譜面を追加しました。修正等ありましたらよろしくお願いします。 -- Sugar (2026-07-01 20:30:01)
最終更新:2026年07月01日 20:30