アットウィキロゴ

Magical Paradox

アーティスト Mr.Asyu

BPM BASIC ADVANCED EXPERT MASTER Re:MASTER
192 5 8 11+ 13+ -

EXPERT MASTER Re:MASTER
譜面制作者 Jack サファ太 -

BASIC


ADVANCED


EXPERT


MASTER

(192)
{1},
{16}1,8,1,8,1,8,1,8,2x^5[8:1],,2x,,6b,,,,
{8}7,7,5,5,3,3,1,1,
{8}8x/7x,,6,6,5/3,{16}3,4,2,,1,,
{8}2/5,2/5,4h[8:1]/3h[8:1],,{16}6,4,6,4,6h[4:1],,,,
{16}8h[16:3],,,7,{8}8,6/1,2-5[8:1]/5-8[8:1],,,,
{16}7x/4x,,,6,5,,{8}3,2/4,2/4,1/5,6/8,
{16}7h[16:3],,,5-1b[8:1],6,,8x,,8x,,,,
{4}7-1[8:1],3-5[8:1],6-8[8:1],{8}4x,4,3,2,
{4}1/2-5[8:1]*-6[8:1],2,7b/4b,,

{8}1/8h[4:1],,{16}E2,E3,E4,E5,{8}7,7,6/5,,
{16}3h[16:3],,,4,4-6[8:1],,2,,1xh[4:1],,,,7h[16:3],,,8,8-2[8:1],,6,,5x,,,,3x/4x,,,,{8}2,2,1/3,2,3/5,3-5b[8:1]/5,,6,6h[4:1],,5,5/4,3/4h[4:1],,

{8}2V83-5[4:3],,5,,7,7,7,,6<2[4:1],,4-8[8:1],,,,7x/1x,,3h[4:1]/4h[4:1],,,,6h[4:1]/5h[4:1],,,,{16}4h[16:3],,,5,5,,6/4,,3xh[4:1]/7-4[8:1],,,,7x,,,,

{16}1bx,,,3,4,,6,,7/5,,,,8bx,,,6,5,,3,,2^7b[4:1]/4,,,,7^4b[4:1],,,,4^1b[4:1],,,,8,,8,,8h[8:1],,,,7/1,,7/1,,6/2,,,,

{16}8bx,,,7,5,,3/4,,3/4,,,,1bx,,,2,4,,6/5,,6h[4:1]/5,,,,8,7,,7,8,,1/6,,2,,2,,1/2,3,4h[8:1],,8,7,6h[8:1],,1,2,3,4,

{16}7h[16:3],,,5,6,,7/4,,5/8h[8:1],,,,2h[16:3],,,4,3,,5/2,,4/1h[8:1],,,,{8}7-4[8:1],8,1,2,3,3,2/4q1[4:1],,1^4[4:1],,4,,
{16}1h[16:3],,,4,2-5[8:1],,3,,6,,,,7h[16:3],,,5,6^3[8:1],,7,,1x,,,,
{4}Ch[4:3],,,{16}8h[16:3],,,,,,1h[16:3]/2h[16:3],,,,,,
{16}1/2^4[4:1],,,,4^6[4:1],,,,8,,,,7h[4:1],,,,8,,8,,,,1/2,,1/2h[4:1],,,,{12}3,4,5,{16}6h[8:3],,,,8h[16:2],,,1h[16:2]/7h[16:2],,,8x/2x,,8x/2x,,,,
{16}7b,5,6,5,,,2b,4,3,4,,,8/2,,8V64b[4:1]/2,,,,3,,3,,,,
{16}5x/1,2,3,4,7,6,5,4,2,3,4,5,1,8,7,6,3,4,3,4,1b,,,,

{8}8-3[8:1]/7v4[8:1],6,7x/8x,,1-6[8:1]/2v5[8:1],3,2x/1x,,
{16}8,,7/1,,6/2,,3,4,2^5[8:1],,1,,8bx/2bx,,,,

{8}7-3[8:1]/8,6,7/1-5^2[2:1],,5,6,7,8,1,1,8-5[8:1]/2-6[8:1],,8/2,,7b/4b,,

{8}1v6[8:1]/2^5[8:1],8,2/1,,
{16}7,8,7,8,6h[16:3],,,1,1,,8/2,,
{8}7-5[8:1]/3-5[8:1],,7-1[8:1]/3-1[8:1],,7-3[8:1]/3,,7b/3b,,

{8}1-5[8:1],2,3h[4:1]/1^6[8:1],,1,,5x/2x-6b[8:1],,2/8-4b[8:1],,8/1^6[8:1]*^4[8:1],,1,,8-5[8:1]/2-5[8:1],1,

{1}8b>8[1:1]/2b<2[1:1],{4},
{8},,7/1,6/2,5/3,,

{16}7h[16:3],,,B4,E5,,8,,2-4[8:1],,1,,2,,,,
{16}6h[16:3],,,E1,B1,,7,,7,,7x/8x,6x/1x,5x/2x-5[8:1],,,,

{16}6x/2x,,,8,8,,7/5,,6/4,,3,4,2,,8,,7/4,,6,5,6,5,7,4,8^5b[8:1],,1,,8bx/3bx,,,,

{16}2,3,2,3,2,,6,5,6,5,6,,7,8,7,8,{8}6-1[8:1],,2-5[8:1],,8,7,6b/1b,,
{4}4,4^6[4:1]/3,A1/D2/E2/B1,,4,4^6[4:1],A1/D2/E2/B1,,
{8}4-8V63[4:3]/3h[4:1],,,,2h[4:1],,,,1h[4:1],,,,E3,E4,E6,E7,
{8}7x/8bx-3-6[4:2],,,,6-2[4:1],,7,,1^6-4[2:1],,3,,3,,
{4}2q7p2[4:6],1h[1:1],,,,,,8x,

{8}6-1[8:1]/1v4[8:1],,6bx/1bx,,
{16},,,,E3,B3,B4,E5,8x,,,,6,,5,,4q1[16:5],,3,,2h[2:1],,,,,,,,
{8}1xh[4:1],,3>7[16:5],3p6[16:3],,,,,5,5,1,1,A7/E7,A3/E4,A5/B5,,
{16}8bx/2bx,,,,E7,B6,B5,E5,1x,,1,,2,,2,,3h[4:1],,{24}A5,D6,A6,{16}D7,,8x,,8x,,,,7/4,,,,
{16}6,5,6,5,6,,5/3,,4/2h[4:1],,,,1,8,7,6,5h[8:1]/3h[8:1],,,,2,4,2,4,1,,1,,8bx/2bx,,,,

{16}3h[16:3],,,,,,2/4,,2/4,,,,7h[16:3],,,,,,6/8,,{4}6/8^3[4:1],7,5^8[4:1],4,2^5[4:1],1,8h[4:1],
{12}5,,5,7,,7,8,,8,6,,6,4,,4,2,,2,{8}8>4[4:2],,5,,7,,1<5[4:2],,4,,2,,
{4}8bh[2:3],,,,,,Ch[4:3],,,{12},,,,,8x/1x,,,,{8}2-5-8[4:2],,4,,6,,1-6-3[4:2],,4,,2,,
{4}1h[4:1],3h[4:1],5h[4:1],{16}7x,,,7/8,,,1/6,,,5/2h[16:3],,,

{16}4bxh[16:3],,,3,5,,6,,7h[4:1]/5,,,,5bxh[16:3],,,6,4,,1/3,,1/3h[4:1],,,,2,3,,3,4,,5/3,,6/4,,7/5,,8/4,,{24}7,5,7,{16}5,,6/4,,7b/3b,,,,
{16}5bxh[16:3]/7,,,6,4,,1/2,,1/2,,,,2/4bxh[16:3],,,3,5,,7/8,,7h[4:1]/8,,,,6,7,,7,8,,1/6,,5/2,,4/3,,3,2,1h[8:1],,5,6,7h[8:1],,8,1,2,3,

{16}6h[16:3],,,3,5,,4/2,,1/3,,,,2h[16:3]/4,,,5,3,,6/4,,7/5,,,,{8}8<4[4:1],1,2,3,2,2,2/4q1[4:1],,1^4[4:1],,4,,
{16}1h[16:3],,,4,2-5[8:1],,3,,6,,,,7h[16:3],,,5,6^3[8:1],,7,,1x,,,,
{4}Ch[4:3],,,{16}1h[16:3],,,,,,8h[16:3]/2h[16:3],,,,,,
{16}7<3[2:1],,,,5^3[4:1],,,,C,,,,2h[4:1],,,,1,,1,,,,8/7,,8/7h[4:1],,,,{12}6,5,4,{16}3h[8:3],,,,1h[16:2],,,8h[16:2]/2h[16:2],,,1/7,,1x/7x,,,,
{16}2b,4,3,5,,,7b,5,6,4,,,8/2,,8V64b[16:3]/2,,,,3,,3,,,,
{16}5/1,2,3,4,7,6,5,4,8,1,2,3,5,6,7,8,5,4,3,2,5,6,7,8,

{4}1/2-6[8:1]*-5[8:1],2b,7/8-4[8:1]*-3[8:1],8b,8-6[8:1]/1-3[8:1],8b-4[8:1]/1b-5[8:1],1b/8b,6b/3b,
{8}6v5b[8:1]/2v1b[8:1],,6b/2b,,8/4,3,7^5[8:1]/4,8,1^3[8:1]/7,8,1/4v1[8:1]*v7[8:1],,4,,6b/2b,,
{8}6-2b[8:1]/3-5b[8:1],5,6/3,,{16}1x,8,7,6,5h[16:3]/3h[16:3],,,,4/2,,5/3,,{4}1b-5[8:1]/7b-3[8:1],1b^4[8:1]/7b^4[8:1],7b/1bw5[8:1],1b,
{8}7x/3x,{24}6,4,6,{16}4,,7/5,,{8}8^5[8:1]/4^1[8:1],,8/4,,8v7[8:1]/4v3[8:1],,8/4,,1b/5b,,6x-1b[8:1]/2x-5b[8:1],7/3,
{1}2b/6b>6b[1:1]/Cf,
{4},,{8}7x,5x,4x,2x,{16}8/1,,3,4,2,,6,5,7,,2,1,3,,7,8,6,,3,4,3,4,2,5,1^4b[8:1],,8,,1bx/7bx,,,,
{16}6,5,6,5,7,,1,,3,4,3,4,2,,8,,6/1,,6/1,5,4,3,2,1,8^5[8:1]/4v1[8:1],,8/4,,,,,,
{16}2b,4,2,4,3h[16:1],,7b,5,7,5,6h[16:1],,1b>8z4[4:3],8,1,8,{1}1b,
{8}5/3,7,6/4,2,8/1,{24}8/1,7/2,6/3,5-2-7-4[4:6]/4,,,,,,
{1},,{4}5/4,{16}E7,E6,E5,E4,E3,,,,1,8,1,8,
{4}2^4[8:1],5-1[8:1]*-2b[8:1],,,
{1},
E

Re:MASTER


  • MASTER譜面のSLIDEの速度の修正を行いました。 -- けもがみ (2026-03-20 12:27:09)
名前:
コメント:

タグ:

+ タグ編集
  • タグ:
最終更新:2026年04月12日 13:44