アットウィキロゴ

Mjölnir

アーティスト xi

BPM BASIC ADVANCED EXPERT MASTER Re:MASTER
222 6 8+ 12+ 14 -

EXPERT MASTER Re:MASTER
譜面制作者 隅田川星人 翠楼屋 -

BASIC


ADVANCED


EXPERT


MASTER

(222)
{1},
{1}C1f/E1/B4/E5/B8,
{1},
{8}4h[2:1],,,,5h[2:1],,,4,
{4}4,6,5,4,
{8}4/5,,6,6,2,2,8,8,
{8}1/8,,2,2,6,6,3,3,
{2}3h[4:1]/5h[4:1],5h[4:1]/7h[4:1],
{16}2,,2,,7,,7,,1,8,1,8,1,8,1,8,
{16}1b,2,3,4,5,6,7,8,1,2,3,4,5,6,7,8,
{6}1x,3x,5x,4x,6x,8x,
{16}2h[1:1]/5b,,,,,,E7,B6,B5,,,,,,E3,B3,
{6}B4,1,8,7,8,7,
{6}1/6,2,3,4/5xh[1:1],,,
{4}B3/B4,,6,7,
{16}1b/8h[1:1],,,,,,E7,B6,B5,,,,,,E3,B3,
{6}B4,8,1,2,1,2,
{6}3/8,7,6,4/5h[2:1],,,
{48}1b,,,,,,,,,,,,,,,,,,,,,,,,3x/5x,,,,,,,,3x/5x,,,,,,,,,,4x,,,5x,,,
{16}4xh[8:7],,,,,,E2,E3,E4,,,,,,E8,E7,
{6}E6,3,3,5,6,6,
{24}E5,,,,C1,,,,E1,,,,1x/8x,,,,,,,,,2/7,,,
{8}2x/7x,,3,2/4,,6,5/7,,
{16}2h[16:3],,,3h[16:3],,,4h[16:3],,,5,,,5/6,,,,
{16}7h[16:3],,,6h[16:3],,,5h[16:3],,,4,,,3/4,,,,
{48}4x/6x,,,,,,,,8x,,,,,,,,6x,,,,,,,3x/5x,,,,,,,,,1x,,,,,,,,3x,,,,,,,,
{12}6x,5,7,3x,4,2,8x,7,6,2x,3,4,
{1}5bpp2[8:7]/6bqq1[8:7],
{16},,,,,,,,1x/8x,,,2x/7x,,,4x/5x,,
{16}4xw8[8:1]/5x,,,,B4,C1f,B8,,,,,,1x/6x>2[4:1],,,,
{16}2<6[4:1],,,,6,,,,3h[16:3],,,4h[16:3],,,2,,
{8}2-5[8:1],,6,7-3[8:1],,2,1>4[8:1],,
{4}1<6[8:1],1-5[8:1],1,3/7,
{8}4,3,2/4,1,6,7,3/8<4[4:1],,
{4}4>8[4:1],8,4,3x>1[8:1]/7x<5[8:1],
{4}3/7,4x-7[8:1]/8x-3[8:1],4/8,4xh[4:1]/8x-4[8:1],
{8}8b,,2x/6x,2x/6x,,4,5,6,
{8}7<4[8:1]/8,,4,3-8[8:1],,4,5<1[4:1],,
{16}1<5[4:1],,,,4,,,,2xh[16:3],,,1,,,3/8,,
{8}3v8[8:1]/8,,5,7v4[8:1],,1,2h[4:1],,
{16}4-8[8:1],,,,3,,,,4x/7x,,,,6,5,6,5,
{8}6-2[8:1],,4,3-7[8:1],,8,8h[4:1],,
{16}1,2,3,4,8,7,6,5,2,3,4,5,7,6,5,4,
{16}2h[16:3],,,1,,,3/8,,7h[16:3],,,8,,,1/6,,
{16}3x/4x,,,5/6,,,4/7,,1x/2x,,,3/4,,,4/5,,
{4}3x/6x-2[8:1],2/6,1-5[8:1],1/8,
{4}6-1[8:1],4/6,2-6[8:1],2/7,
{4}8-4[8:1],2-5[8:1]/8,2/6-2[8:1],1w5[8:1]/6,
{4}1,3-8[8:1]/7-4[8:1],3/7,1x/5x,
{16}2h[16:3],,,3h[16:3],,,4h[16:3],,,5h[16:3],,,6,,6,,
{16}5/7h[16:3],,,6h[16:3],,,5h[16:3],,,4h[16:3],,,3,,,,
{16}2h[2:3]/8b,,,,,,E2,E3,E4,,,,,,E8,E7,
{16}E6,,,,,,E1,C1,E5,,,,2-6[8:1],,,,
{1}8b,
{48}2x,,,,4x,,,,3x,,,,7x,,,,5x,,,,6x,,,,4x,,,5x,,,4x,,,5x,,,4x,,,5x,,,4x,,,5x,,,
{1}C1f,
{1},
{1}5h[4:7],
{1}4h[4:3],
{16}5,4,5,,3b/6b,,,,1h[16:1]/7h[16:1],,1h[16:1]/7h[16:1],,2h[16:1]/6h[16:1],,2h[16:1]/6h[16:1],,
{8}3h[16:1]/5h[16:1],3h[16:1]/5h[16:1],4h[16:1]/6h[16:1],4h[16:1]/6h[16:1],3h[16:1]/7h[16:1],3h[16:1]/7h[16:1],3h[16:1]/7h[16:1],3h[16:1]/7h[16:1],
{8}4h[16:1]/6h[16:1],4h[16:1]/6h[16:1],3h[16:1]/5h[16:1],3h[16:1]/5h[16:1],2h[16:1]/4h[16:1],2h[16:1]/4h[16:1],3h[16:1]/5h[16:1],3h[16:1]/5h[16:1],
{8}4h[16:1]/6h[16:1],4h[16:1]/6h[16:1],5h[16:1]/7h[16:1],5h[16:1]/7h[16:1],4h[16:1]/6h[16:1],3h[16:1]/5h[16:1],2h[16:1]/4h[16:1],2h[16:1]/4h[16:1],
{8}3h[16:1]/5h[16:1],4h[16:1]/6h[16:1],5h[16:1]/7h[16:1],5h[16:1]/7h[16:1],4h[16:1]/8h[16:1],4h[16:1]/8h[16:1],3h[16:1]/7h[16:1],3h[16:1]/7h[16:1],
{8}2h[16:1]/6h[16:1],2h[16:1]/6h[16:1],3h[16:1]/7h[16:1],3h[16:1]/7h[16:1],2h[16:1]/6h[16:1],1h[16:1]/5h[16:1],2h[16:1]/6h[16:1],3h[16:1]/7h[16:1],
{8}4h[16:1]/8h[16:1],5h[16:1]/7h[16:1],4h[16:1]/6h[16:1],3h[16:1]/5h[16:1],2h[16:1]/6h[16:1],2h[16:1]/6h[16:1],3h[16:1]/5h[16:1],3h[16:1]/5h[16:1],
{8}4h[16:1]/6h[16:1],4h[16:1]/6h[16:1],3h[16:1]/7h[16:1],3h[16:1]/7h[16:1],2h[16:1]/8h[16:1],3h[16:1]/7h[16:1],4h[16:1]/6h[16:1],3h[16:1]/5h[16:1],
{16}2h[16:1]/6h[16:1],,2h[16:1]/6h[16:1],,1h[16:1]/7h[16:1],,1h[16:1]/7h[16:1],,3b/5b,,,2,2h[16:3],,,4,
{16}4h[16:3],,,3,3,5,6,1,2,3,4,5,8,7,6,5,
{16}1,2,3,4,7,6,5,4,2,1,2,1,2,1,2,,
{16}7,8,7,8,7,8,7,,4,5,4,5,4,5,4,,
{16}8,1,8,,2b/7b,,,,1,2,3,4,6,7,8,1,
{16}4,3,2,1,7,6,5,4,2,3,4,5,8,7,6,5,
{48}2x,,,,4x,,,,3x,,,,7x,,,,5x,,,,6x,,,,4,,,5,,,4,,,5,,,4,,,5,,,4,,,5,,,
{16}4,3,2,1,8,7,6,5,8,7,6,5,8,7,6,5,
{48}1,,,2,,,3,,,4,,,1,,,2,,,3,,,4,,,1b,,,,,,,,,,,,8x,,,,4,,,,6,,,,
{12}1x,5,3,7x,5,6,2x,4,3,6x,5,7,
{12}3x,4,2,6x,4,8,1b,1,3,8,8,6,
{12}2,2,4,7,7,5,3,3,1,6,6,8,
{12}2,2,5,7,7,4,C1f,,,,,,
{16},,,,,,,,2,7,2,7,2,7,2,7,
{48}3,,,6,,,3,,,6,,,4-1[8:1],,,5-8[16:1],,,4,,,5,,,4b,,E5,,C1f,,E1,,,,,,,,,,,,,,,,,,
{1},
{6}3x/4x,5x/7x,1xpp4[4:3]/6xpp4[4:3],,,,
{2},C1f/E1/B4/E5/B8,
{1},
{1},
{32},,,,2/7,,,,2/7,,,,,,,,1x-5[8:1]/8x-4[8:1],2x/7x,3x/6x,4x/5x,,,,,1>4[8:1]/8<5[8:1],,,,,,,,
{32}1/8,,,,,,,,2x/7x,,,,,,,,4-8[8:1]/5-1[8:1],,,,,,,,4b/5b,C1f,,,,,,,
{8},3x/4x,2/5,1/6,7/8>3[8:1],,8<5[8:1],,
{4}8,2x-4[8:1]/4x-8[8:1],2/4,5x-8[8:1]/7x-5[8:1],
{8}5/7,,1x-4[8:1]/4x-1[8:1],,1/4,,5x/8x,5x/8x,
{8},4,5,6,7<4[8:1]/8,,4,3-8[8:1],
{8},4,5V71[4:1],,1V75[4:1],,4,,
{16}3xh[16:3],,,4,,,2/5,,2h[8:1]/5h[8:1],,,3h[8:1]/6h[8:1],,,4x/7x,,
{8},6,6-8[8:1],4,6-4[8:1],,2/6,,
{16}1x/6x,,,,2,4,2,4,3h[16:3],,,4h[16:3],,,5-1[8:1],,
{16},,7,,7h[4:1],,,,1,2,3,4,8,7,6,5,
{16}3,2,1,8,5,6,7,8,2h[16:3],,,1,,,3/8,,
{16}7h[16:3],,,8,,,1/6,,2x/5x,,,4/6,,,7/8,,
{16}1x/6x,,,2/4,,,5/7,,4x/8x-4[8:1],,,,1-5[8:1]/8,,,,
{4}1/6-8[8:1],2-6[8:1]/6,1-7[8:1]/2,5-2[8:1],
{4}5/6-1[8:1],1x/6,2-6[8:1],2/5-1[8:1],
{4}4-8[8:1]/5,4/6-1[8:1],2/6,3-8[8:1]/7-4[8:1],
{16}3/7,,,,1b/5b,,,,2h[8:1]/4h[8:1],,,3h[8:1]/5h[8:1],,,4h[8:1]/6h[8:1],,
{16},5h[8:1]/7h[8:1],,,4/8,,,,5h[8:1]/7h[8:1],,,4h[8:1]/6h[8:1],,,3h[8:1]/5h[8:1],,
{16},2h[8:1]/4h[8:1],,,1/5,,,,3h[2:3]/7b,,,,,,B2,B3,
{16}B4,,,,,,B8,B7,B6,,,,,,B1,C1,
{16}B5,,,,4x/6x,,,,2b/8h[2:3],,,,,,E8,E7,
{16}E6,,,,,,E2,E3,E4,,,,,,E1,C1,
{12}E5,,,4x/5x,,,3/6,,,8,2,4,
{12}1,5,3,8,4,6,1,7,3,1,5,7,
{12}8,4,2,1,5,7,C1xh[2:1],,,,,,
{16},,,,,,,,8,1,8,1,8,1,8,1,
{32}7x,6x,5x,4x,3x,2x,1x,8x,7x,6x,5x,4x,3x,2x,1x,8x,7x,6x,5x,4x,3x,2x,1x,8x,C1f/7x,,,,,,,,
{8},7/8,1,2,3-8[8:1],3,7,7,
{16}1,2,3,4,6,7,8,1,5-1[8:1],,5,,7<4[8:1],,7,,
{16}2-6[8:1],,2,,8,,8,,5,4,3,2,7,6,5,4,
{16}1,2,3,4,8,1,2,3,4b,5,6,7,8,,4,5,
{16}6,7,8,,5,6,7,8,5b,4,3,2,1,,5,4,
{16}3,2,1,,4,3,2,1,7h[16:3],,,5,5h[16:3],,,4,
{16}4h[16:3],,,2,2h[16:3],,,,8,1,8,1,7,2,7,2,
{16}6,3,6,3,5,4,5,4,6-8[8:1],,6,,2,,3,,
{8}1-5[8:1],1,4,3,6-4[8:1],6,2-8[8:1],2,
{8}6-2[8:1],6,2,3,4-8[8:1],4,7,6,
{8}1-3[8:1],1,4,5,6-1[8:1],6,3<6[8:1],3,
{16}8-4[8:1],,8,,1b,,,,2h[8:1],,4,3h[8:1],,5,4h[8:1],,
{16}6,5,,7,8,,1/6,,7h[8:1],,5,6h[8:1],,4,5h[8:1],,
{16}3,4,,1,8,,2/7,,4,5,4,5,4,5,4,5,
{32}4,3,2,1,8,7,6,5,4,3,2,1,8,7,6,5,4x/8xh[8:15],,,,,,,,,,,,,,,,
{2},1h[8:7],
{16},,,,,,,,1-5[8:1]/8-4[8:1],,,,1b/8b,C1f,,,
{1},
{1},
{8},,,,,1/8,1/8,2/7,
{24}2/7,,,3-7[8:1]/6-2[8:1],,,4/5,,,3b/6b,B3/B6,C1f,B2/B7,,,,,,,,,,,,
{1},
{1},
{1},
E

Re:MASTER


名前:
コメント:

タグ:

+ タグ編集
  • タグ:
最終更新:2026年03月29日 15:13