アットウィキロゴ

命テステス

アーティスト ぱりぱりさらうどん

BPM BASIC ADVANCED EXPERT MASTER Re:MASTER
240 3 8 11 13+ -

EXPERT MASTER Re:MASTER
譜面制作者 Jack はっぴー -

BASIC


ADVANCED


EXPERT

(240)
{1},
{1},
{1}8^1-4[8:5]*^7-4[8:5],

{2}3xh[4:1]/5xh[4:1],3h[4:1]/5h[4:1],
{1}2^5[2:1]/6,
{2}4xh[4:1]/6xh[4:1],4h[4:1]/6h[4:1],
{1}3/7^5p8[8:5],
{2}1xh[4:1]/7xh[4:1],1h[4:1]/7h[4:1],
{1}2^4q1[8:5]/6,
{2}2xh[4:1]/8xh[4:1],2h[4:1]/8h[4:1],
{1}3/7p4[4:3],

{8}3h[8:3],,,4h[8:3],,,{4}5,
{8}3h[8:3],,,4h[8:3],,,{4}5,
{8}7h[8:3]/8,,,5h[8:3],,,{4}4,
{8}7h[8:3]/8,,,5h[8:3],,,{4}4,
{8}2h[8:3]/3,,,4h[8:3],,,{4}5,
{8}2h[8:3]/3,,,4h[8:3],,,{4}5,
{1}4h[4:7]/5h[4:7],
{1},

{4}3,2,3,2,
{4}14,23,{2}1h[4:1]/4h[4:1],
{4}7,6,7,6,
{4}58,6^3[4:1]/7,{2},
{4}18,7,18,2,
{4}18,27,{2}3h[4:1]/6h[4:1],
{4}3,4,5,{8}6,6x,
{4},E4,E5,E6,

{2}7^5[4:1]/8p4[4:1],{4},1x/2x,
{2}7^5[4:1]/8p4[4:1],{4},2x/3x,
{4}12,12,18,18,
{2}7^5[4:1]/8p4[4:1],{4},1x/2x,
{2}1q5[4:1]/2^4[4:1],{4},7x/8x,
{2}1q5[4:1]/2^4[4:1],{4},6x/7x,
{4}78,78,18,18,
{1}1q5^7[2:1]/2^4q8[2:1],

{8}7xh[4:1]/8xh[4:1],,,5h[4:1]/6h[4:1],,,{4}78,
{8}1xh[4:1]/2xh[4:1],,,7h[4:1]/8h[4:1],,,{4}12,
{4}78,78,56,5p3[4:3]/6p4[4:3],
{1},
{8}1xh[4:1]/2xh[4:1],,,3h[4:1]/4h[4:1],,,{4}12,
{8}7xh[4:1]/8xh[4:1],,,1h[4:1]/2h[4:1],,,{4}78,
{4}12,12,34,34,
{8}2b/3b,,,6b/7b,,,{4}1b/8b,
{1},
{1},

{1}1h[4:27]/2^5[2:1],
{1}2^5[2:1],
{1}3^6[2:1],
{1}3^6[2:1],
{1}4^7[2:1],
{1}4^7[2:1],
{1}8h[4:3],
{4},E2,E3,E4,

{2}5h[4:1]/6h[4:1],5h[4:1]/6h[4:1],
{4}46,46,{2}B5f/E5/E6,
{4}3,2,1,8,
{4}7,6,45,{8}3x,3x,
{4}3x,2,1,8,
{4}7,6-4[4:1],{2},
{4}3,34,6,56,
{4}4,2,{2}8h[4:3],

{2}6h[4:3],5h[4:3],
{2}3h[4:3],2h[1:2],
{1}8h[2:3],
{1},
{2}1h[4:3],3h[4:3],
{2}5h[4:3],7h[4:5],
{1}2h[4:3],
{2},45,

{1}5-7[8:3],
{1}4-2[8:3],
{1}5-7[8:3],
{1}4-2[8:3],
{1}6-3[2:1],
{1}2-7[2:1],
{1}6-3[2:1],
{8}A1/A2/B1/B2/E2f,,,A5/A6/B5/B6/E6f,,,{4},

{4}8b,{8}3,3,,7,{4}7,
{4}1b,{8}6,6,,2,{4}2pp5[8:7]*pp6[8:7],
{1},
{4}8bx,{8}1x/7x,1x/7x,,2,{4}2,
{4}3b/5b,{8}6,6,,1,{4}1,
{4}2b/8b,{8}7,7,,4,{4}4,
{4}3h[4:1],4h[4:1],5h[4:1],6h[4:1],
{2}7-3[4:1]*-4[4:1],{4},2x/8x,

{8}1h[8:3],,,3h[8:3],,,{4}4,
{8}5h[8:3]/6,,,4h[8:3],,,{4}1,
{8}8h[8:3],,,6h[8:3],,,{4}5,
{8}3/4h[8:3],,,6h[8:3],,,{4}8,
{2}5^3[4:1]/7^5[4:1],{4},1,
{2}2^4[4:1]/4^6[4:1],{4},8,
{4}57,46,35,24,
{2}1xh[4:1]/8xh[4:1],{4}24,57,

{1}3/6-3[4:5],
{2},{4},4,
{4}35,78,46,12,
{1}3v8[8:3]b/5v8[8:3]b,

{8}7h[8:5],,,6h[4:1],,,{4}67,
{8}5h[8:5],,,8h[4:1],,,{4}58,
{8}1h[8:5],,,4h[4:1],,,{4}14,
{8}3h[8:5],,,2h[4:1],,,{4}32,
{8}4x,4x,5x,3x,,7x/8x,{4}7x/8x,
{8}1x,1x,8x,2x,,5x/6x,{4}5x/6x,
{1}4bh[8:15]/5bh[8:15],
{1},
{1},
{1}8^1-4[4:5]*^7-4[4:5],
{1},
E

MASTER

(240)
{4}E6,E5,E4,2qq5[8:5]/7pp5[8:5],,,,,
57,B6,24,B3,5^2[4:1]/7,B6,,B3,57,B6,24,B3,4^1[4:1]/6,B5,8^5[4:1],B1,
2,B3,57,B6,2/4^7[4:1],B3,,B6,24,B3,57,B6,3/5^8[4:1],E4,1,24,

{8}24,,3^6[4:1],3h[8:3],,,,,24,,3^6[4:1],3h[8:3],,,,,
24,,3p7[4:1],3h[8:3],,,,,24,,3p7[4:1],3h[8:3],,,,,
24,,3,3h[8:3],,,,,24,,3,3h[8:3],,,,,{4}2h[4:3]/4h[4:3],,,,,E6,E5,E4,
2>6[4:1],6>2[4:1],7,8,8-4[4:1],4-8[4:1],3,2,1-5[4:1],5-1[4:1],6,7,7<3[4:1],3<7[4:1],2,1,
1V75[4:1],5V71[4:1],4,4,8V24[4:1],4V28[4:1],5,5,1,1,28,{8}37,3b/7b,,,

{4}
7x/8x,1x/8x,1x-5-1[2:1]/2x-4-2[2:1],,,,8-4-8[2:1]/7-5-7[2:1],,,,
2h[4:1],5<1<5[2:1],3,3,2q7p2[2:1],7,8,8,
2-7-2[2:1]/8-4-8[2:1],,,,1-5-1[2:1]/7-2-7[2:1],,,,
2h[4:1],5<1<5[2:1],3,3,3-1[8:1]*-8[8:1],,,{8}2x/5x,2x/5x,
{1}3x^8^3[2:1]/4xp8q4[2:1],5q1p5[2:1]/6^1^6[2:1],
{8}4,5,3,8,8,5,6,1,1-4-1[2:1],3h[8:3],,,,,,,
{1}4p7q4[2:1]/3-6-3[2:1],5q2p5[2:1]/6-3-6[2:1],
{4}4,5-2[8:1]/6,5/6-1b[8:1],3,4pp4[4:1],4qq4b[4:1],,,

8bh[4:9],{1},,
{4}4,3-6[4:1]/7-2[4:1],,,48,3-1[4:1]/7-5[4:1],,,15,1-4[4:1]/5-8[4:1],,,48,4-1[4:1]/8-5[4:1],,,
27,3^1[4:1]/8^6[4:1],,,27,1^3[4:1]/6^8[4:1],,,4qq1[2:1]/8v5[2:1],,,,,
6,5,4,3h[2:1],E4,6h[2:1],E6,3h[2:1],E5,D5f/B4/B5/A4/A5,
6,7h[2:1],E6,2h[2:1],E3,7h[2:1],E5,D5/B4/B5/A4/A5,
{8}2b,2b,2b,,18,,7,,6,7,8,1,2x,3,3h[4:1],,1,1,1,,8,8,{4}8-4[8:1],2-6[8:1],5,4,
6<4[4:13],A4,A3,B3,B4,A4,A3,B3,B2,,5h[1:1],,,,,,
3>5[4:13],A5,A6,B6,B5,A5,A6,B6,B7,,4h[2:1],,,,,

4,4,5-8-5[2:1],,,3,4-1-4[2:1],,,6,5,4,4,34,3-8-3[2:1]/4-7-4[2:1],,,,
4-1-4[2:1]/5,,,6,5-8-5[2:1],,,3,4,5,5,5h[4:1]/6h[4:1],,
{8}B5/B6f/E5/E7/D7,,,B3f/B4/E3/E5/D3,,,
{1}1xq7p1[2:1]/2x>6>2[2:1],5q3p5[2:1]/6<2<6[2:1],
{4}7h[4:1],5p8q5[2:1],6,6,6-8-2-8-6[2:1],3,4,5,
4q1p4[2:1]/8-6-3-6-8[2:1],,,,1p4q1[2:1]/5-7-2-7-5[2:1],,,,
2-6-2[4:1],7-3-7[4:1],,2,1-4-1[4:1],8-5-8[4:1],,

{8},2,2^7[4:1],,4,,5,5,,3,2^7[4:1],,4,,5,5,,4,3>7[4:1],,4,,5,5,,4,3>7[4:1],,4,,5,5,,
4,3V52[4:1],,8,,1,1,,2,2V41[4:1],,7,,8,8,,2,2^4[4:1],,
{4}
8,7^5[4:1],1,2-4[4:1],8,7-5[4:1],1h[4:1],4^6[4:1],,,B2/C/B7/A7,,,,B2/C/B8/A8,
1-4[8:1],1-6[8:1],1-5-1[2:1],1,7,8q4p8[2:1],
{8},5,5,,,,
57,,6^1[4:1],6h[8:3],,,,,57,,6^1[4:1],6h[8:3],,,,,
57,,6^5-2[4:1],6h[8:3],,,,,57,,6^5-2[4:1],6h[8:3],,,,,
57,,6-3-7-2[4:1],6h[8:3],,,,,57,,6-3-7-2[4:1],6h[8:3],,,,,
57,,6[4:1],6h[8:3],,,,,
{2}5h[1:2]/7h[2:5],,,,,4-1^7p1[4:3]/4-7^1q7[4:3],,,E

Re:MASTER


  • 追加しました。--CenPaka (2026-01-04 16:37:30)
  • 一部ノーツの配置ミスを修正しました。 -- NaTaKa (2026-01-05 00:26:02)
名前:
コメント:

タグ:

+ タグ編集
  • タグ:
最終更新:2026年06月18日 19:09