アットウィキロゴ

最愛人生ランナー

アーティスト かいりきベア

BPM BASIC ADVANCED EXPERT MASTER Re:MASTER
180 4 7+ 11 13+ -

EXPERT MASTER Re:MASTER
譜面制作者 サファ太 Luxizhel -

BASIC


ADVANCED


EXPERT

(180)
{1}4xh[2:3],
{4}5,5,{2}6^4[4:1],

{4}3,3,24,1,
{4}8,57,{2}6^4[4:1],
{4}3,3,24,1,
{4}8,57,{2}6^4[4:1],
{4}3,3,12,78,
{4}6,57,{2}6^4[4:1],
{4}2,12,7,78,
{8}1,1,{4}8,{2}27,

{4}3h[2:1],4,4h[2:1],3,
{4}2h[2:1],3,1,18,
{4}7h[2:1],8,5h[2:1],6,
{4}7,{8}6,6,{4}56,4b/7b,
{4}3h[2:1],4,4,1x/3x,
{4}2h[2:1],1,1,12,
{2}8^5[4:1],1^4[4:1],
{8}5,5,{4}5,46,3b/7b,

{8}2,2,{4}1,18,18,
{8}7,7,{4}8,56,8x,
{8}7,7,{4}8,18,18,
{8}2,2,{4}1,34,1x,

{4}2h[2:1],3,4h[2:1],3,
{8}2,2,{4}4,35,46,
{4}7h[2:1],6,5h[2:1],6,
{8}7,7,{4}5,46,2b/8b,
{4}12,{8}7,7,{4}8,{8}2,2,
{4}1,12,18,78,
{2}7-4[4:1],3-8[4:1],
{8}7,7,{4}1,28,3bxh[8:9]/7bx>4[8:7],
{1},
{2},{8}4,4,{4}5,

{8}1b/8b,18,{4}18,57,34,
{8}12,12,{4}12,4b/7b,56,
{8}78,78,{4}78,2b/5b,34,
{8}16,16,{4}16,34,7b/8b,
{8}2,2,{4}1,34,56,
{8}78,78,{4}78,2b/5b,34,
{8}56,56,{4}56,1b/2b,4b/5b,
{8}78,78,{4}78,56,3b/8b,

{2}1-5[8:1]/2-4[8:1],7-5[8:1]/8-4[8:1],
{2}1-5[8:1]/2-4[8:1],{4}7x/8x,7x/8x,
{8}6,6,{4}57,{8}3,3,{4}24,
{8}12,12,{4}12,4b/7b,5x/6x,
{2}7-5[8:1]/8-4[8:1],1-5[8:1]/2-4[8:1],
{2}7-5[8:1]/8-4[8:1],{4}1x/2x,1x/2x,
{8}8,8,2,2,7,7,{4}1,
{8}46,46,{4}46,2b/8b,3qq4[1:1]/7qq8[1:1],

{1},
{2},{4}57,4/6h[4:5],

{2}5h[4:1],5h[4:1],
{4}E5,E6,E7,E8,
{2}1h[1:1]/2h[4:1],2h[4:1],
{4}E2,E3,E4,Cf/E5,
{1}8xV62-4[4:3],
{1}1V73-5[4:3],
{2}6h[4:1],5h[4:1]/7h[4:1],
{8}6,6,{4}4,35,2b/6b,

{4}3,24,6,57,
{8}3,3,{4}4,{2}5/6-8[4:1],
{4}2,13,7,68,
{8}6,6,{4}5,{2}4/6-8[4:1],

{4}2h[4:1],8h[4:1],2h[4:1],1h[4:1],
{4}3h[4:1],4h[4:1],5h[4:1],6h[4:1],
{4}8,56,34,1<3[8:4]/2,
{2},{4},1b,
{4}2h[8:1]/4h[8:1],2h[8:1]/4h[8:1],5h[8:1]/6h[8:1],5h[8:1]/6h[8:1],
{4}4h[8:1]/7h[8:1],4h[8:1]/7h[8:1],3h[8:1]/6h[8:1],2h[8:1]/5h[8:1],
{2}2^7[4:1],6^3[4:1],
{2}1-5[4:1],{4}8,4b/7b,

{1}5-1-3[2:1]/6-8-4[2:1],
{1}3-7-1[2:1]/4-6-2[2:1],
{1}1q8[2:1]/2>7[2:1],
{1}7<2[2:1]/8p1[2:1],
{2}1/2v5[4:1],{4}8,8,
{2}7v4[4:1]/8,{4}1,1,
{8}3x,3x,{4}4x,25,18,
{4}47,25,{2}3-1[8:1]/6-8[8:1],
{1}Ch[8:7],
{2},{4}1,18,

{8}8b,8,{4}17,24,56,
{8}78,78,{4}7-4[8:1]b/8-4[8:1]b,,35,
{8}12,12,{4}1-5[8:1]b/2-5[8:1]b,,46,
{8}37,37,{4}37,15,3b/8b,
{8}7,7,{4}68,45,13,
{8}26,26,{4}2-5[8:1]b/6-1[8:1]b,,48,
{8}35,35,{4}35,1b/2b,7b/8b,
{8}56,56,{4}5-1[8:1]/6-3[8:1],,2b/8b,

{1}3h[4:3]/7h[4:3],
{2}4^1[4:1]/6^1[4:1],{4},2x/8x,
{4}3h[8:1]/4h[8:1],3h[8:1]/4h[8:1],5h[8:1]/7h[8:1],5h[8:1]/7h[8:1],
{8}18,18,{4}1^4[4:1]b/8^5[4:1]b,{2},
{4}5-1[8:1],4b,2h[4:1],8,
{8}37,37,{4}3-8[8:1]/7-4[8:1],,15,
{8}24,24,{4}24,6b/7b,1b/2b,
{8}47,47,{4}4-8[8:1]/7-4[8:1],,1b/5b,

{4}6h[8:1]/8h[8:1],1h[8:1]/3h[8:1],7h[8:1]/8h[8:1],1h[8:1]/2h[8:1],
{4}6h[8:1]/8h[8:1],1h[8:1]/3h[8:1],7h[8:1]/8h[8:1],1h[8:1]/2h[8:1],
{4}3/8-6[8:1],2-4[8:1],5-1[8:1],3x,
{8}28,28,{4}28,4b/6b,3x/7x,
{4}1h[8:1]/3h[8:1],6h[8:1]/8h[8:1],1h[8:1]/2h[8:1],7h[8:1]/8h[8:1],
{4}1h[8:1]/3h[8:1],6h[8:1]/8h[8:1],1h[8:1]/2h[8:1],7h[8:1]/8h[8:1],
{4}1-3[8:1]/6,7-5[8:1],4-8[8:1],6x,
{8}17,17,{4}17,3b/4b,56,
{8}13,13,{4}1b/3b,{8}68,68,{4}6b/8b,
{8}1,1,7,7,17,17,{4}2b/6b,

{4}3h[4:1],4h[4:1],3h[4:1],2h[4:1],
{8}1,1,{4}8,{2}2/7^4[4:1],
{4}3h[4:1],4h[4:1],3h[4:1],2h[4:1],
{8}1,1,{4}8,{2}2^5[4:1]/7,
{8}6,6,5,5,{4}7h[4:1],{8}8,8,
{8}6,6,1,1,{2}5<8[4:1],
{8}2,2,1,1,{4}3h[4:1],{8}4,4,
{8}2,2,5,5,{2}8>4[4:1],

{8}6,6,{4}35,{8}26,26,{4}1bh[16:19]/7b-3[8:1]b,
E

MASTER

(180)
{4},,,,5h[8:1]/3h[8:1],
5h[8:1]/3h[8:1],6h[8:1]/4h[8:1],6h[8:1]/4h[8:1],
{8}7/5,8,{16}2,1,{8}2,3-8[8:1],4,{4}3b/5b,
{8}8/7,6,5/4,3,{4}2>5[8:1],{8}8,7h[4:1],
,{16}5,6,{8}5,{16}7,8,{8}7-5[8:1],1,{4}1b,
{8}4/3,2,8/1,7,{4}6<1[8:1],{8}4,3h[4:1],
,{16}1,2,{8}1,{16}3,4,{8}3-5[8:1],7,{4}7b,
{8}5/6,7,8/1,2,{4}3/4<7[8:1],{8}3,2h[4:1],
,{16}1,2,{8}1,{16}7,8,{8}7-5[8:1],1,{4}1b,
{8}2/4,3,5/4,6,{4}5/7<4[8:1],{8}2,1h[4:1],
,{16}4,2,{8}4,{16}7,5,{8}7,1,{4}8b/2b,
7/4,6/5,{8}6/4,4,{4}6/4,
{8}6/5,5,{4}6/5,6/1-5[8:1],6,
6,5/4,{8}4/3,4,{4}4/3p8[8:5],
5,6-1[8:1],,7b/2b,
{8}6/4,4,{4}6/4,{8}6/5,5,{4}6/5,
6/8,6/1,6/4-8[8:1],7,
{16}7h[16:3],{8},{16}6h[16:3],{8},5,{16}2h[16:3],{8},{16}3h[16:3],{8},4,
5,7,1-6[8:1]*-4[8:1],2,{4},7b/3b,
{8}6/5,7,8/1,2,{4}3/4h[4:1],{8}3,5/2h[4:1],
,{16}4,3,{8}4,{16}2-4[8:1],1,{2}2-8b[8:1],
{8}7/5,6,5/4,3,{4}1/2h[4:1],{8}1,3/8h[4:1],
,{16}2,1,{8}2,{16}4,3,{8}4,2/5,{4}5b/2b,
3>6<3[4:5],5,5,5,
E6,E7,E8,E1,
6<2qq7[4:5],3,3,3,
4,5-1[8:1],5,7/3b,
8/2>7<2[4:5],8,8,8,
1,1,1,1/2,
{16}8h[16:3],{8},{16}6h[16:3],{8},5,{16}4h[16:3],{8},{16}2h[16:3],{8},1,
8,7,1,2,{4}6/3,8/1-4[8:7],
{8},,,,,,,8h[8:5],
{2},{8}3bx,1bx,{4}5bxV31[8:1],
{8}8/5,{16}7,7,{8}8,6,{4}5/1h[4:1],{8}B6/E6f,7x,
7x-5[8:1],8-4[8:1],7-3[8:1],8,7b,8x,1x,2x,
2x-4[8:1],1x-5[8:1],2-6[8:1],1,2b,1x,8x,7x,
1xq5[8:1],8x<6[8:1],1>3[8:1],8p4[8:1],1-5[8:1],8,{4}1b,
{8}6h[8:1],{16}8,8,{8}7,6/1,{4}3h[4:1],{8}E7/E6/B6f,8x,
8x<5[8:1],4>1[8:1],8-4[8:1],4,8b,1x,1x,7x,
7x-5[8:1],8x-4[8:1],7,8,1-5[8:1],2-4[8:1],1,2,
8-4[8:1],2-6[8:1],8<5[8:1],2,8-3[8:1]*-2[8:1],1,{4}8b,
{8}1x/4x-7[8:1],1,1/4,1,1/8-4[8:1],1,8/1,1,
5-7[8:1],2-4[8:1],5-1[8:1],2,5,2,{4}1x/2x,
{8}8/3-6[8:1],8,8/3,8,8/7-4[8:1],8,8/7,8,
8/4x,3,6-1[8:1]/2-5[8:1],5,{4}6/2,8b/4b,
{8}2/6-4[8:1],2,6/2,2,2/3-7[8:1],2,2/3,2,
8-6[8:1],4-2[8:1],8-4[8:1],4,8,1,{4}1/5,
{8}7/3-6[8:1],7,3/7,7,7/5-2[8:1],7,7/5,7,
7/1,2,6-1[8:1]/3-8[8:1],5/4,{4}6/3,7b/2b,
1,1,{16}E8,{8},{16}E7,{8},E6,
{4}5,4/6,{8}6-2[16:1],5,{4}4bx,
{8}3,3,{4}4/3-5-2-8[4:3],{8}7,7,{4}7,
{8}6,6,{4}6h[4:1],{8}8,7,{4}6/1,
{8}3,3,{4}4/2,{8}5,5,{4}4/6pp2[8:5],
{8}5,5,{4}5,4-1[8:1],4b,
{8}8/2,8/2,{4}8/2,{8}7/1,7/1,{4}7/1<6<1[2:1],
{8}5,5,{4}5,{8}4,4,{4}1/4,
{16}2h[16:3],{8},{16}3h[16:3],{8},4,{16}5h[16:3],{8},{16}6h[16:3],{8},7pp7[8:3]*qq7[8:3],
{4},,,8b/1b,
{8}4/2,1,8/7,6,{4}5/3h[4:1],{8}4,5/2,
,{16}3,4,{8}2,{16}6-1[8:1],5,{2}7-4b[8:1],
{8}2/4,3,4/5,6,{4}7/8h[4:1],{8}7,1/6,
,{16}2,1,{8}3,{16}6,5,{8}7,8/1,{4}7x/2x,
8/1-5[8:1],8,8/6-3[8:1],7,
6/2>5[4:1],5<8[4:1],8>3[4:1],3,
5,4/6-1[8:1],3,2-5[8:1],
{8}8,7qq4[2:1],{4}7,3>8b[8:1],3b,
{8}1x,1x,{4}8/2,{8}4,4,{4}3/5,
{8}7-4[8:1],3-8[8:1],7,3,5,1,{4}2/4,
{16}6h[16:3],{8},{16}7h[16:3],{8},8,2,2,{4}2/1>5[4:1],
5<1[4:1],1-5[8:1],5,7b/3b,
{8}6h[8:3],{4},{8}5,6h[4:3],{4},{8}7,
{4},5,E7/E6/E5,4,
{8}3h[8:3],{4},{8}4,3h[4:3],{4},{8}2,
{4},4,E3/E4/E5,6b,
{8}7h[8:3],{4},{8}5,6h[4:3],{4},{8}7,
{4},5,E7/B6/B5/E5,3,
{8}2h[8:3],{4},{8}4,3h[4:3],{4},{8}2,
{4},4,E3/B3/B4/E5,1/8-5b[8:7],
{8},,,,,,,1h[8:7],
{2},{8}6bx,8bx,{4}4bxV68[8:1],
{8}1/4,{16}2,2,{8}1,3,{4}4/8h[4:1],{8}B3/E4f,2x,
2bx-4[8:1],1-5[8:1],2-6[8:1],1,2,1x,8x,7x,
7x-5[8:1],8x-4[8:1],7-3[8:1],8,7,8x,1x,2x,
8p4[8:1],1>3[8:1],8<6[8:1],1q5[8:1],8-4[8:1],1,{4}8b,
{8}3h[8:1],{16}1,1,{8}2,8/3,{4}4h[4:1],{8}B6/E7f,8x,
8bx<5[8:1],4>1[8:1],8-4[8:1],4,8,2x,2x,4x,
4x-7[8:1],3x-8[8:1],4,3,6x-1[8:1],5x-2[8:1],6,5,
8-2[8:1],3-5[8:1],8<5[8:1],3-7b[8:1],8-4[8:1],3,{4}8b,
{1}6h[4:7]/2h[4:7],
,{4}8p4[8:1]/7<5[8:1],
8/7,1q5[8:1]/2>4[8:1],1/2,
{1}6xp4[2:1],
{8}5-1[8:1]/4-8[8:1],3/6,{4}E5f,{8}7x/2-5[8:1],3,6-1[8:1],7,
4-8[8:1],3,8w4[8:1],7,{4},6x/2x,
{8}7x-4[8:1],8x-3[8:1],7,8,1x-6[8:1],2x-5[8:1],1,2,
7x-1[8:1],4x>2[8:1],7-5[8:1],4-8[8:1],7-3b[8:1],4,{4}7bx,
{8}1x/5x-2[8:1],1,1/5,1,1/3-8[8:1],1,1/3,1,
7-5[8:1],3-1[8:1],7-3[8:1],3-7[8:1],7,1x,{4}1x,
{8}3/8-4[8:1],3,8/3,3,3/5-1[8:1],3,5/3,3,
7/3,6,5-1[8:1]/2-4[8:1],1,{4}2/5,7b/3b,
{8}5/4-8[8:1],5,4/5,5,5/7>2[8:1],5,7/5,5,
2x-4[8:1],6-8[8:1],2-6[8:1],6-2[8:1],2,8,{4}8,
{8}1/7-3[8:1],1,1/7,1,1/2-6[8:1],1,1/2,1,
1x/5x,6,7-4[8:1]/3-8[8:1],8/4,{4}7/3,6b/2b,
{8}8/7-4[8:1],6/5,7/8,1,2-5[8:1],3/4,2/1,8,
4/7-4b[8:1],6,7/1w5[8:1],2,{4}1b,E8/D8/E7/D7/E3/D3/E4/D4/A3f/A7f,
{8}1/2,3,5/6,7,{4}1/2,{8}8/7,1/6h[4:1],
,{16}4,5,{8}3h[8:1],{16}1-6[8:1],2,{2}1-4b[8:1],
{8}5/6,7,1/2,3,{4}5/6,{8}3/4,5/2h[4:1],
,{16}8,1,{8}7h[8:1],{16}5,6,{8}4h[8:1],C,{4}8b/2b,
{8}7/1,6,8/2,3,{4}7/8,{8}6/5,4/7h[4:1],
,{16}1,8,{8}2h[8:1],{16}4<7[8:1],3,{2}4v1b[8:1],
{8}8/2,3,7/1,6,{4}1/2,{8}3/4,5/2h[4:1],
,{16}8,1,{8}7h[8:1],{16}5,6,{8}4h[8:1],C,{4}1b/7b,
{8}1/8,7/2,{16}3,4,2,6,5,7,1,8,{4}7bx/2bx>5[8:1],
{1}8bh[16:15]/A2f,
{1},
E

Re:MASTER


名前:
コメント:

タグ:

+ タグ編集
  • タグ:
最終更新:2026年06月19日 23:05