BASIC
ADVANCED
EXPERT
MASTER
(204)
{1},
{1},
{1},
{1},
{1},
{12}5,,,5,,,5,,,5,,4,
{12}5,,,5,,,5,,3,4,3,5,
{12}4,,,4,,,4,,,4,,6,
{12}5,6,3,4,3,5,4,,,Cf,,,
{4}7/5h[4:1],6,2/4h[4:1],3,
{12}75,,6,5,,3,4,,,25,,3,
{4}4<7[8:1],2,8>3[8:1],6,
{4}8,8bx/4bx,2bx/6bx,5,
6<1[8:1],2,3<5[8:1],7,
{12}84,,7,5,,2,4,,,15,,,
{4}6-1[8:1],2,3-5[8:1],7,
{12}6,6,4,5,5,3,4,,,E2/E3/B2,,,
{4}6V82[4:1],4,3V17[4:1],5,
{4}6<1[8:1],4,2>5[8:1],8,
{12}7,,7,5,,5,3,,3,1>4[8:1],,,
{4}5<8[8:1],,8h[4:1]/4h[4:1],,
{4}7V53[4:1],3,2V46[4:1],8,
{4}7<4[8:1],1,3>8[8:1],5,
{12}6,,6,8,,8,2,,2,4,,,
{2}7-4[8:1]/3-8[8:1],26,
{4}3<5[8:1],6,7>1[8:1],2,
{12}3,,3,4,,4,5,,,64,,,
{4}7-2[8:1],3,3-6[8:1],7,
{12}8,,8,6,,6,4,,4,2,,,
{4}2>5[8:1],5,7q4[8:1],4,
{12}3,,3,4,,4,5,,,36,,,
{4}6<1[8:1],2,3>8[8:1],7,
{12}6,,6,5,,5,4,,,35,,,
{12}2/6-1[8:1],,,3,,,4/8<5[8:1],,,3,,3,
{12},,4,3,,1,2,,6,5,,7,
{12}8-3[8:1],,,6,,,7/1>4[8:1],,,6,,6,
{12},,85,8p4[4:1]/5<7[4:1],,,,,,,,,
{4}6>4[8:1],3,2<8[8:1],7,
{12}6,,6,5,,5,4,,,35,,,
{4}2-7[8:1],6,6-3[8:1],2,
{12}1,,1,3,,3,5,,5,7,,,
{4}7>2[8:1],2,3<6[8:1],6,
{12}7,,7,8,,8,1,,,7/3>8[8:1],,,
{4}5,2/6<1[8:1],4,37,
{12}2,,2,4,,,15,,,37,,,
{12}4h[6:1],,6,4h[6:1],,5,4h[6:1],,3,4h[6:1],,2,
{12}4h[6:1],,E2,4h[6:1],,E1,4h[6:1],,E8,4h[6:1],,E7,
{12}4h[6:1],,8,4h[6:1],,1,4h[6:1],,2,4h[6:1],,3,
{12}4h[6:1],,E6,4h[6:1],,B6,4bx,,,5,3,5,
{12}2h[6:1],,4,2h[6:1],,3,2h[6:1],,1,2h[6:1],,8,
{12}2h[6:1],,B7,2h[6:1],,B6,2h[6:1],,,1bx/5bx,,,
2h[6:1]/5h[6:1],,,3h[6:1]/4h[6:1],,,2h[6:1]/1h[6:1],,,7h[6:1]/5h[6:1],,,
6,5,7,3,4,2,6h[4:7],,,,,,
{1},
{4}1,2,7-4[8:1]/3v8[8:1],73,
{12}26,,,7p3[8:1],,8,7,,1,1-4[8:1],,,
{12}1b-6[8:1],,,1b-5[8:1],,,1b,,,7h[6:1],,5,
6,,6,8,,8,2,,2,4,,,
{12}5/3V17[4:1],,,6h[4:1],,,,,,6V84[4:1],,5,
{4}6,,3xh[6:1]/5xh[6:1],2xh[6:1]/6xh[6:1],
{12}8,8,8,8,8,8,17,,,7<4[8:1],,8,
{12}7,,,2-5[8:1]/5-8[8:1],,,25,,,3>8[8:1],,7,
{12}3,,,1v4[8:1]/5<8[8:1],,,15,,,3<6[8:1],,7,
3,,,7h[6:1],,8,6,,2,4-7[8:1],,,
{4}4b-1[8:1],4b-8[8:1],4b,2-7[4:1],
{4}7-4[4:1],4-1[4:1],1-6[4:1],6-2[4:1],
{12}2>5[4:1],,,5-1[4:1],,,,,,8,,74,
{4}7<4[8:1]/4>1[8:1],,8-3[8:1],6V41[4:1],
{12}B4/B5/E5f,,,,,,2,1,3,7,8,6,
{12}1-5[8:1],,1,8-4[8:1],,8,2p6[8:1],,2,5-8[8:1],,5,
3-7[8:1],,3,6-1[8:1],,6,2-5[8:1],,2,7<4[8:1],,7,
3>8[8:1],,3,6v1[8:1],,6,2,,,7/3-8[8:1],,,
{4}3b-5[8:1]/6b-1[8:1],3b/6b,7b/3b,8<5[8:1],
{4}3v8[8:1],4-7[8:1],2>5[8:1],8<5[8:1],8b>3[8:1],8b-4[8:1],8b,2-6[8:1],
{4}82,7-4[8:1]/5-1[8:1],75,3V14[4:1]/7V58[4:1],
,,37,1-6b[8:1]/2-5b[8:1],
12,8-3b[8:1]/7-4b[8:1],87,1/2-6b[8:1],
{12}2/1-3-5-7b[4:1],,,12,,,1bx,,,8,8,8,
17,,,6h[6:1],,2,4h[6:1],,2,8-4[8:1],,,
{4}8b-6[8:1]/1b-6[8:1],8b-3[8:1]/8b-3[8:1],8b/1b,2/4-8[8:1],
4/2-6[8:1],2/7-4[8:1],7/5-1[8:1],5/6-2[8:1],
6-4[8:1]/3-8[8:1],3/6<4[4:1],6/1h[4:1],,
6/1-5[8:1],1/7-3[8:1]*-4[8:1],7,2/5h[4:1],
{32}1,2,3,4,5,6,7,8,1,2,3,4,5,6,7,8,1w5[8:1]/5,,,,,,,,1b,,,,,,,,
E
Re:MASTER
最終更新:2026年04月07日 21:43