アットウィキロゴ

クーネル・エンゲイザー

アーティスト 電ǂ鯨

BPM BASIC ADVANCED EXPERT MASTER Re:MASTER
170 3 7 9+ 12+ -

EXPERT MASTER Re:MASTER
譜面制作者 サファ太 はっぴー -

BASIC


ADVANCED


EXPERT


MASTER

(170)
{4}E6,E4,{8}6,5,4x,3x,

{4}
2V46[4:1],5,8<4[4:1],5,
2V46[4:1],5,8<4[4:1],3V57-1[4:2],
1b,,5,6,
{8}4/7,,3/6,,1/8,3/6,4b/5b,,

{1}2>6[4:2],7V53[4:2],2q5<1[4:5],,
{2}7-3[4:1],1-5[4:1],6<4[4:2],,
{4}E3,E4,E5,E6, E7,8w4[4:1],,,

{2}2h[4:2],4h[4:2], 5h[4:2],{4}7,7,
{2}7h[4:2],5h[4:2], 4h[4:2],2,
{4}3,3h[4:1],1,1h[4:1], 8,8h[4:1],6,,
{2}1h[4:4],8h[4:2], {4},,,3hx[8:1]/4hx[8:1],
{8}2-6[8:1],2,5-8[8:1],5,1^4[8:1],1,8b,,

{8}
7h[8:3],,5,4, 3h[8:6],,5,6,
7h[8:2],,,, {12}6,,6,4,,4,
{8}8h[8:3],,,5, 5,7,7,3,
4,2,6,5, 7,1x,1x,,

{8}6h[8:3],,8,1, 2h[8:2],,4,,
{4}3h[4:1],1h[4:1],7h[4:1],5,
{8}8,1,2,3, 4,5,6,,
{4}7-5[8:1]/8-4[8:1],7/8, 1q5[8:1]/2^4[8:1],1/2,

{4}
6<2<6[4:5],4,5,5, 4h[4:1],,3,4,
3>7>3[4:5],5,4,4, 5,5,6,1,

{16}7^4[8:1],8,7,8, {4}7,
{16}2^5[8:1],1,2,1, {4}2,
{16}7-3[8:1],8,7,8, {4}7,
{16}2-6[8:1],1,2,1, {4}2,

{4}8h[4:1],6, 4/6,{8}7V53[4:1],3V17[4:1],
,,,5b, 1b,,,,

{2}
7h[4:2],5h[4:2],3h[4:2],1h[4:2],
7h[4:2],5h[4:2],3h[4:2],1b,
{8}8h[4:6],,,5, 5,,4,, 6,,7,, 2,,1h[4:4],,
{4}4,3,7,2, 4b,2b/6b, 3b/7b,
1-5[8:1]b/8-6[8:1],

{4}
1-3[8:1]b/8-4[8:1],1-5[8:1]b/8-6[8:1],
1-3[8:1]b/8-4[8:1],1/8,
1/8,7V53[4:1]b,
3V17[4:1]b,7,
3,2>6[4:1]b,
6<2[4:1]b,2,
6, {8}8,8,
1/7,, {4}6<2[4:1],
4,3>7[4:1],
5,6-1[8:1],
5-2[8:1],7v4[8:1],
1h[4:1],5x,
3/4,1-5[8:1]/2-6[8:1],
,5/7-5[8:1],
7/8-4[8:1],1-3[8:1]/8,
1/4,1b/6b,

{4}
7pp8[4:1],5,
3pp4[4:1],1,
7pp8[4:1],5,
3h[4:1],1V75[4:1],
2,8V24[4:1],
7,1,
1V35[4:1]*V75[4:1],,
,7-5[8:1]/8-4[8:1],

{4}
7/8,1-5[8:1]/2-4[8:1],
1b/2b,7-5[8:1]/8-4[8:1],
7-3[8:1]/8-2[8:1],7-5[8:1]/8-4[8:1],
7/8,1^4[8:1]/7^4[8:1],
1x/7x,8-2-6-4[8:3],
3,2w6[8:1]b,

{4},,
{8}1/7,3/5, 2^5[8:1]/6^1[8:1],, 2/6,,
{16}8,,8,, 7,5,6,, 3,,3,4, 3,,2,1, 2,1,2,,
{8}3b,5b, 7b,1b, 5,5, 2<6[4:1],2,
6<2[4:1],,3,,
{16}E5,E4,E3,E2, E1,E8,E7,E6, {8}2bx,2bx,3bx/5bx,,

{16}
4/6,,,1, 1,,,4, 2,,5,, 2,,4/6,,
4/6,,,2, 2,,6x,, 1,8,1,8, 2,,,,
4/6,,2,2, ,,5,5, 4,6,2x,8x, 2x,,4/6,,
4/6,,3/7,, 2,2,5,, 3x/7x,,4x/6x,, 2bx/8bx<1[4:4],,,,

{4}
,,,,
,,1V35[4:1],,
8V64[4:1],,1-5[4:1],,
8qq8[4:3],,,,
5z1[4:2],,,6xV82[4:1],
2xV46[4:1],,,7x-2[4:1],
5qq2[4:2],,,,
8qq7[4:1],1pp2[4:1],,6b,

{4}
5h[4:1],3qq8[4:3],4h[4:1],,
6h[4:1],,5h[4:1],7>3[4:2],
4h[4:1],,5h[4:1],3>7[8:3],
4h[4:1],,5,8,
1,{8}2-6-4[4:1],2, {4}8h[4:1],,
3/7,{8}2^5[4:1],2, {4}6h[4:3],,
8p3[4:2],,1x,2x,
1V35[4:1],5V71[4:1],1,,

{4}
6<3[4:4],,E2,E1, E8,E7,E6,E5,
3>7[4:3],,E8,E1, E2,E3,E4,E5,
3-5[4:1],E7, 7-1[4:1],E3,
2-6[4:1],E5, E1f,,
C,, ,1-3[8:1]*-4[8:1],
1b-6[8:1]*-7[8:1],1b-5[8:1], 1b,3/7,

{4}
2^5[8:1],2/8-4[8:1], 1-6[8:1]/8,1/7^4[8:1],
3/7,2/5, 7V53[4:1],3V17[4:1],
7,3, 1>5[8:1]b*<5[8:1]b,1x,
{8}7-4[8:1],1-4[8:1],7,1, {4}8h[4:1],5,
7q4[8:1]/8^3[8:1],, 1^6[8:1]/2p5[8:1],,
7q4[8:1]/8^3[8:1],, 1/2,4/7>3[4:1],
3v5[4:1],5, 4,3>6[4:1],
6<3[4:1],4, 4,3x/5x,

{4}
2-5v3[4:2],{8}7,7, {4}8,1^6[4:1],
5,3h[4:1], {8}8,8,4,5,
{8}2q6[4:1],,6,7, 8p4[4:1],,3,2,
1pp3[8:1],1v6[8:1],1-5[8:1],, {4},4x/6x,

{8}1-5[8:1],7-2[8:1],1,7, 4h[4:1],,7p3[8:1],,
{4}1v6[8:1],8p4[8:1], 2^3-5[8:1],8w4[8:1],
,1-5[8:1], 1-4[8:1]*-6[8:1],1w5[4:1]b,
1b,,7h[4:6],,
3h[4:4],,,,
E

Re:MASTER


  • MASTERをsimai語の練習を兼ねて追加しました -- amif (2026-01-04 23:18:30)
  • 最後の方の1bが抜けてたので修正 -- amif (2026-01-05 09:21:22)
名前:
コメント:

タグ:

+ タグ編集
  • タグ:
最終更新:2026年04月08日 20:21