アットウィキロゴ

Swift Swing

アーティスト Laur

BPM BASIC ADVANCED EXPERT MASTER Re:MASTER
150 4 8 12 14 -

EXPERT MASTER Re:MASTER
譜面制作者 隅田川星人 はっぴー星人 -

BASIC


ADVANCED


EXPERT


MASTER

(150)
{1},
{24}6h[8:1],,,5,4/7,,,,3h[8:1],,,4,2/5,,,1h[8:1],,,8,2/7,,,,,
{4},C1f/5b<4[4:5]*p4[4:3],,,
{1},
{32}4/6h[8:1],,,,,,,,B5/6h[8:1],E5,,,,,,,4/6h[8:1],,,,,,,,E3/6h[8:1],B3,,,,,,,
{32}4/6h[8:1],,,,,,,,B5/6h[8:1],E5,,,,,,,4/6h[8:1],,,,,,,,E3/6h[8:1],B2,,,,,,,
{32}3h[8:1]/5,,,,,,,,B4/3h[8:1],E5,,,,,,,3h[8:1]/5,,,,,,,,E7/3h[8:1],B6,,,,,,,
{32}3h[8:1]/5,,,,,,,,B4/3h[8:1],E5,,,,,,,3h[8:1]/5,,,,,,,,E7/3h[8:1],B7,,,,,,,
{32}4h[8:1]/8-6[8:1],,,,,,,,B7,B6,,,,,,,1-3[8:1]/4h[8:1],,,,,,,,B2,B3,,,,,,,
{32}5h[8:1]/8-6[8:1],,,,,,,,B7,B6,,,,,,,1-3[8:1]/4h[8:1],,,,,,,,B2,B3,,,,,,,
{96}8-4[8:1],,,,,,,,,,,,1-5[8:1],,,,,,,,,,,,8,,,,,,,,,,,,1,,,,,,,,,,,,7,,,,,,,,7,,,,2,,,,,,,,2,,,,6p4[8:3]*pp5[8:3],,,5,,,4,,,3,,,2,,,1,,,8,,,7,,,
{12},,,,,,3,4,5,3/6,,,
{24}5,,5,3,,3,6,,6,4,,4,7,,7,5,,5,8,,8,1,,,
{24}7,,7,5,,5,4,,4,2x,,,E3/8b,,,E7/1b,,,E5/8b,,,,,,
{24}4,,4,6,,6,3,,3,5,,5,2,,2,4,,4,1<2[8:3],,1,8,,,
{24}4h[2:1],,,,,,,,,,,,1-5[8:1],,1,,,5x,,,,,,,
{24}4,,4,6,,6,3,,3,5,,5,2,,2,4,,4,1,,1,8,,,
{24}2,,2,4,,4,5,,5,7x,,,E7/1b,,,E3/8b,,,E5/1b,,,,,,
{24}5,,5,3,,3,6,,6,4,,4,7,,7,5,,5,8,,8,1x,,,
{24}2/5,,,4/7,,,3/6,3/6,,,1b/8b,,,,,B3/E3/E4/B6/E6/E7,,,B1/E2/B8/E8,,,,,,
{24}2x/7x,3x/6x,4xh[4:1]/5x,,,,,,5,5,,,2x,3,4,8x,7,6,4x,3,2,1h[8:1],,,
{24}8x,7,6,2x,3,4,7x,6,5,2x,3,4,1x,2,3,4,5,6,1x/7x,,,,,,
{24}3,,3,4,,4,3,,2/5h[8:1],,,4,,,6,5,,5,7,,7,1,,1,
{24}8h[6:1],,,,5x,4x,3x,,7,1,,,1h[6:1],,4x,5x,6x,,,,,5,,,
{24}4h[8:1]/6h[8:1],,,,,3h[8:1]/5h[8:1],,,,2h[8:1]/4,,,E5,B5,B6,B7,,,1x,,,1x,,,
{24}2h[8:1]/4h[8:1],,,,,3h[8:1]/5h[8:1],,,,4h[8:1]/6,,,B7,B6,E6,B2,B3,E4,E8,E7,E6,E2,E3,E4,
{12}8b,,1,7,5,6,2,4,3,6,5,8,
{24}E3/8b,,E4/8b,,E5/8b,,,,E7/1b,,E6/1b,,E5/1b,,,B2/E2/B7/E8,,,B2/E2/B7/E8,,,,,,
{4}4x/5xh[1:2],6,,6,
{8},,6,,E7,E6,C1,E5,
{4}4xh[1:1],3,,3>6[16:5],
{4},,4/5,1/8-5[8:1],
{4}2h[8:1]/8-3[8:1],6h[8:1]/8-5[8:1],2h[8:1]/8-3[8:1],6h[8:1]/8,
{8}8-4[8:1],1-5[8:1],8-6[8:1],1-3[8:1],8-4[8:1],1-5[8:1],8,1,
{48}6,,,,5,,3,,,,4,,7,,,,5,,2,,,,4,,7x,,6,,5,,2x,,3,,4,,8x,7,6,5,4,3,2,1,8,7,6,5,
{48}4x,,,,,,,,1x/8x,,,,,,,,3x/6x,,,,,,,,2x/7x,,,,,,,,C1f,B6,B3,,,,,,,,,,,,,,
{24}1b/8b,,,2,,,7-3[8:1],,8,5,,,1/7<4[8:1],,,1,,,3>8[8:1],,,2,,,
{24}5-1[8:1],,,6,,,7,,,8,,,2-6[8:1],,1,4,,,5<8[8:1],,,5>2[8:1],,,
{24},,,,,,6,,,4,,,3>8[8:1],,2,5,,,3<6[8:1],,,4,,,
{8}8,8,2,7,1p8[4:1]/8<1[4:1],4/5,,,
{48},,,,,,,,,,,,1b/8b,2b/7b,3b/6b,4b/5b,,,,,,,,,3-1[8:1],,,,2,,5,,,,,,3V57[8:1],,,,,,4,,,,,,
{8}8,8,5-7[8:1],4-2[8:1],3,,6-2[8:1],5,
{24}1-5[8:1],,,8,,,3,,,6,,,6,,,5/7,4/8,,,,2/4,1/5,,,
{12}4/6,,3/8,,1/4,,5,4/6,3/7,2q4[8:3]/8<5[8:1],,,
{8}2/8b,,6pp1[8:7],,3h[8:1],,3,4,
{8}3h[8:1],,3-5[8:1],4,3x>8[8:1]/8x<5[8:1],,3/8V24[8:1],,
{32}5-8[8:1],,,,,,,,3xqq8[8:5],,,,,,,,7b,6,5,,,,,,7b,6,5,,,,,,
{32}7b-4[8:1],6,5,,,,,,1,,,,,,,,2-8[8:1],,,,8-3[8:1],,,,4,,,,4,,,,
{32}4b-1[8:1],5,6,7,8,,,,7x-3[8:1],,,,,,,,C1f,,,,,,,,1h[8:1],,,,2,3,4,5,
{32}6qq8[4:1],7,8,1,2,,,,,,,,,,,,3-7[8:1],,,,7-3[8:1],,,,1w5[8:1],,,,8,,,,
{24}1b,,,,,,,,,,,,,,,,,,5,4,5,,,,
{64}1bpp6[16:9]/8bqq3[16:9],E1,C1f,E8,E2,B6,B3,E5,,,,,,,,,,,,,,,,,,,,,,,,,,,,,,,,,,,,,,,,,,,,,,,,,,,,,,,,,
{32}6h[1:1],,,,,,,,B4,E5,,,,,,,,,,,,,,,B4,E5,,,,,,,
{32}3h[4:3],,,,,,,,B5,E5,,,,,,,,,,,,,,,B5,E5,,,,,,,
{32}2h[1:1]/6,,,,,,,,B5,E5,,,,,,,,,,,,,,,B5,E5,,,,,,,
{32}7h[4:3],,,,,,,,B4,E5,,,,,,,,,,,,,,,B4,E5,,,,,,,
{4}6>4[4:1],B6/E7,2<8[4:1],B2/E3,
{4}6>4[4:1],B6/E7,2<8[8:1],6h[4:5],
{8}7,7,8,8,1,2,3,4,
{48}5h[4:1],,,,,,,,,,,,4,,5,,4,,5,,4,,5,,4,,5,,4,,5,,4,,5,,3b,2,1,8,7,6,5,,,,,,
{24}2-5[8:1],,,1,,,2/6pp4[4:1],,,7,,,4x/6,,,,,3x,,,,2x,,,
{24}1-4[8:1]/2,,,,,1h[24:7],,,,,,,5,,,2/6,,,3>1[8:1]/7,,,4/8,,,
{24}3/7<5[8:1],,,8,,,3>1[8:1]/7,,,4,,,3/7,,,5,,5,1,,1,8,,8,
{24}2,,,3/4,,,4>5[4:1]/5p4[4:1],,,5/6,,,,,,,,,,,,4x,,5x,
{24}4x-8[8:1],,,3,,,2/4x,,,1,,1,8x-4[8:1],,,7,,,6/8x,,,5,,5,
{24}4x-8[8:1],,,3,,,2/4x,,,1,,1,8x-4[8:1],,,7,,,6/8x,,,5,,,
{24}3,,3,2,,2,1,,1,8,,8,7,,7,6,,6,5,,,,,,
{24}E1/1b,,C1/2b,,E5/3b,,,,E1/8b,,C1/7b,,E5/6b,,,1x,,,1x/8x,,,,,,
{24}3,,3,5,,,5h[24:5],,,,,4,,,4,6h[8:1],,,5,,5,6,,,
{24}3,,3,5,,,5h[24:5],,,,,4,,,3,4,,4,2,,2,5,,,
{24}6,,6,4,,,4h[24:5],,,,,5,,,5,3h[8:1],,,4,,4,3,,,
{24}6,,6,5,,5,4,,4,3,,3-6[8:1],4,,,5,,,,,,,,,
{24}7x,,7,5,,,4xh[8:1]/6,,,5,,5,3x,,4,2h[8:1],,,5x,,5,3,,,
{24}6x,,6,8,,,1xh[8:1]/7,,,8,,8,2x,,1,3h[8:1],,,8x,,8,2,,,
{48}7,,,,5,,2,,,,4,,8,,,,6,,1,,,,3,,8x,,7,,6,,1x,,2,,3,,8x,7,6,5,4,3,2,1,8,7,6,5,
{48}4x,,,,,,2/6,,,,,,3/7pp4[4:1],,3/7,,,,,,2b,B2,C1f,B6,,,,,,,,,,,,,,,,,,,,,,,,,
{1},
{1},
{1},
E

Re:MASTER


名前:
コメント:

タグ:

+ タグ編集
  • タグ:
最終更新:2026年04月11日 22:01