アットウィキロゴ

スピカの天秤

アーティスト Acotto

BPM BASIC ADVANCED EXPERT MASTER Re:MASTER
252 5 8+ 13 14 -

EXPERT MASTER Re:MASTER
譜面制作者 はっぴー 翠楼屋 -

BASIC


ADVANCED


EXPERT


MASTER

(252)
{1},
{1},
{1}4>5[4:55],
{1},
{1},
{1}1,
{1}8,
{1}1,
{1}8,
{1},
{1},
{1}1,
{1}8,
{1}1,
{1}8,
{1},
{1}1w5[8:3],
{8}4h[4:1],,,4h[4:1],,,4,,
{8}5h[4:1],,,5h[4:1],,,5,,
{8}4h[4:1]/6h[4:1],,,4h[4:1]/6h[4:1],,,4/6,,
{16}4h[4:1]/5h[4:1],,,,,,4h[4:1]/5h[4:1],,,,,,E4,B4,B5,E6,
{1}C1xh[1:1],
{8},,,,,,1,8h[8:13],
{1}2h[4:3],
{24}2,,,,,,6,,,,,,E7,B6,B5,B4,B3,E3,,,,,,,
{12}8,7,6,2,3,4,7,6,5,1,,,
{8}2b-5[8:1],8,8,,4/6,,3/4,2,
{4}1-4[8:1]/5,1<6[8:1],1>4[8:1],1-6[8:1],
{4}1b-4[8:1],1-5[8:1],1,3/7,
{12}1,2,3,7,6,5,2,3,4,8,,,
{8}7b-4[8:1],1,1,,2/5,,5/6,7,
{4}3/8-5[8:1],8-3[8:1],8<5[8:1],8>3[8:1],
{8}8b,,5/6,,4/7,4/7,4/7,,
{12}1,2,3,7,6,5,2,3,4,8,,,
{8}7b-3[8:1],1,1,,2/4,,5/6,7,
{4}3/8<5[8:1],8>3[8:1],8-5[8:1],8-3[8:1],
{4}8b-4[8:1],8>3[8:1],8,5/6,
{12}4,3,2,6,7,8,3,2,1,5,,,
{8}7b-4[8:1],8,8,,2,,5/6,7,
{4}3/8<5[4:1],5-1[4:1],1>4[4:1],4-8[4:1],
{8}8b,,1,,2x/6x,2x/6x,2x/6x,,
{8}5h[4:1],,4h[4:1],,5,,6,6,
{8}3,4,2xh[4:1],,,2h[4:1]/5x,,,
{8}3/4,,,7,7h[4:1],,5,6,
{8}4x,4,5,5xh[8:3],,,2x,2h[4:1],
{8},4x,4h[4:1],,5x,5h[4:1],,6x,
{8}6h[2:1],,,,4,4,5,5,
{8}3,4,2h[4:1],,5,5,4,4,
{8}6x,7xh[8:3],,,4x,3xh[8:3],,,
{8}5x,5,1,8x,8,5,6x,6,
{8}2,4x,4,8,5x,5,3,8x<2[8:9],
{8},2b,,,,,,,
{8},,1,1,1,8,8,8,
{8}2/7x,2x/7,2/7x,2x/7,3/6x,3x/6,3/6x,3x/6,
{1}4bz8[2:1]/5bs1[2:1],
{8}2x/7x,,3,3,4<7[4:1],,8,,
{12}2,3,4,7,6,5,1,2,3,8,7,6,
{12}2,4,2,4,2,4,3,5,3,5,3,5,
{12}4,6,4,6,4,6,5,,,4/7,,,
{8}4/7,,6,6,5>2[4:1],,1,,
{12}7,6,5,2,3,4,8,7,6,1,2,3,
{12}7,5,7,5,7,5,6,4,6,4,6,4,
{12}5,3,5,3,5,3,4,,,2/5,,,
{8}3/4,,6,6,5>2[4:1],,1,,
{12}7,6,5,1,2,3,8,7,6,2,3,4,
{12}7,8,7,8,7,8,6,5,6,5,6,5,
{8}7h[4:1],,4,4,6,3,3,5,
{8}2h[4:1],,4,4,1h[4:1],,8,,
{8}7h[4:1],,5,5,8h[4:1],,1>4[4:1],,
{4}4,8<5[4:1],5,1w5[2:1],
{1},
{1}C1f/B5/7h[4:3],
{1}C1f/B4/2h[4:3],
{1}C1f/B6/8h[4:3],
{16}1h[16:3],,,,,2h[16:3]/8h[16:3],,,,,3h[16:3]/7h[16:3],,,,,,
{12}4,6,4,6,4,5,4,5,3,5,3,5,
{12}3,6,3,6,2,7,2,7,2,8,2,8,
{12}2,3,4,5,1,2,3,4,8,1,2,3,
{12}7,8,1,2,6,7,8,1,5,6,7,8,
(189){1}C1xh[4:17],
{1},
{4},E1,E8,E7,
{4}E6,E7,E8,8h[1:3],
{1},
{4}E1,C1,E5,E6,
{4}E7,E8,E1,C1,
{4}E5,E4/E6,C1xh[2:5]/E3/E7,,
{4},,,B1/B8,
{4}B2/B7,B3/B6,B4/B5,B3/B6,
{4}B2/B7,E1,C1,E5,
{1}C1xh[2:3],
{4},,,8V64[4:3],
{4},3,4V61[4:3],,
{4}2,1<4[4:3],,,
{4},3,2/4,1V35[4:3],
{4},6,5V38[4:3],,
{4}7,8>5[4:3],,,
{4},6,5/7,8p3[4:3],
{4},4,3<6[4:3],,
{4}2,1q6[4:3],,7,
{4}7,7,8h[4:1],7h[4:1],
{4}6h[4:1],5h[4:3],C1,,
{4}1h[4:1],2h[4:1],3h[4:1],4h[4:1],
{4}C1,,2/7,3/6-1[2:1],
{8}4,4,,5,5>2[2:1],,8,,
{8}7,,7-4[2:1],,1,1,,2,
{4}2,3,4/5,3-8[2:1]/6,
{8}5,5,,4,4<7[2:1],,1,,
{8}2,,2-6[2:1],,8,8,,7,
{4}7b,5/6,4/5,3h[4:3],
{8}4,4,,2,2<7[2:1],,3,,
{8}4,,5h[4:3],,6,6,,4,
{4}4q1[2:1],3,2,2b,
{8}3,3,4,,3x/5,,6,6,
{4}5x,4x/6x,3x/5x,2x/7x,
{8}1/8,1/8,1/8,1/8,2b/7b,,(252)4h[8:5]/5h[8:11],,
{48},,,,,,,,,,,,,,,,,,,E4,B3,B2,E2,1xh[48:67],,,,,,,,,,,,,,,,,,,,,,,,,
{48},,,,,,,E6,B6,B7,E8,8xh[48:31],,,,,,,,,,,,,,,,,,,,,,,,,,,,,,,,,,,,,
{4},,,3b/6b,
{8}2/4,3,4-7[8:1]/6,5,3-8[8:1],,6x,,
{8}1/7,,6,5,4,3,2/8,,
{8}5/7,6,3/5>2[8:1],4,8-4[8:1],,1x/8b,,
{8}2x/5x,,3,3,7-2[8:1],5,7,,
{8}3x,,4,4,7-3[8:1],5,7,,
{8}4x,,3,3,7-4[8:1],1,7b,2-5[8:1],
{8}1,2b,8-4[8:1],1,8b,2-6[8:1],1,2b,
{4}8,1x/7x,2-5[8:1]/8-5[8:1],,
{8}3b/7b,,4/5,4/5,4-1[8:1]/5-8[8:1],,4/5,,
{8}2x/7x,,3,4,5,6,7/8,,
{8}2/4,3,4<7[8:1]/6,5,1-5[8:1],,1b/8x,,
{8}4x/7x,,6,6,2-7[8:1],4,2,,
{8}6x,,5,5,2-6[8:1],4,2,,
{8}7x,,6,5,4,3,2x/5x,,
{8}3/7,3x/7x,,2/4,2x/4x,,5/7,5x/7x,
{8},8,1,2,3/7,3x/7x-3[8:1],,1,
{8}1x-6[8:1],,5,5x<3[8:3],,4,4b,,
{12},,,,,,,,,1,2,3,
{12}8,7,6,2,3,4,7,6,5,1/4,2,3,
{12}4,5,6,2/7,3,4,5,6,7,4/8,3,2,
{12}5,6,7,3,2,1,6,7,8,1/4,3,2,
{12}1,8,7,3/6,2,1,8,7,6,1/5,2,3,
{12}7,6,5,2,3,4,1,8,7,4,3,2,
{12}6,7,8,3,2,1,4,5,6,1,2,3,
{12}1/4,8,7,1/6,2,3,1/4,8,7,1xh[2:1]/6,,,
{24},,,,,,7,,5,,6,,2,,4,,3,,5,,,5-1[8:1],,,
{8}4,5x,,2,2-6[8:1],1,2x,,
{8}7,7,8x,6,2,2x-5[8:1],5,2x,
{8},8x,8-3[8:1],4,8x,,2x,2-5[8:1],
{8}4,2x,,8x<6[8:1],1,2,3x>1[8:1],4,
{8}5,6x>4[8:1],7,8,1x,1,8x>3[8:1],7,
{8}6x,5<8[8:1],4,3x,2>5[8:1],1,8,7,
{8}6,5,4,3,2x/6x,2x/6x,2x/6x,,
{8}3,3,3,5,5,5,4,4,
{8}4,6,6,6,4,4,4,5h[8:3],
{8},,2b,3/6,4/7b,3/6,2b/5,3/6h[8:3],
{32},,,,,,,,4,,,,8,,,,8,,,,1/7,2/6,3/5,4,,,,,,,,,
{1}C1f/8x<1[2:7],
{1},
{1},
{1},
{8}1bs5[2:1]/8bz4[2:1],1b/8b,,,,,,,
{1},
{1},
{1},
E

Re:MASTER


名前:
コメント:

タグ:

+ タグ編集
  • タグ:
最終更新:2026年04月09日 22:39