アットウィキロゴ

otorii INNOVATED -[i]3-

アーティスト NAOKI underground

BPM BASIC ADVANCED EXPERT MASTER Re:MASTER
210 6 8+ 13 14 -

EXPERT MASTER Re:MASTER
譜面制作者 翠楼屋 Hz-R.Arrow -

BASIC


ADVANCED


EXPERT


MASTER

(210){1},
{8}4h[2:1]/5<3[2:7],,,,,,,4,
{8},4,,,,,,,
{8}4,,,,4,,,4,
{8},4h[8:5],,,,,,,
{8}4/5<3[2:3],,,,,,,4,
{8},4h[8:5],,,,,,,
{2}4h[4:1]/5<7[8:1],4h[4:1]/5<7[8:1],
{8}3/5,2,1,8,6-3[8:1]/7-2[8:1],,,,
{8}1x/4x,1,1/4,1,1/4,1,1/4,,
{8}2/4,2,2/4,2,2/4,2,2/4,,
{8}3/4,3,3/4,3,3/4,3,3/4,,
{8}4/5,4/5,4/5,2/3,2-7[8:1]/3-6[8:1],,,,
{8}5x/8x,8,5/8,8,5/8,8,5/8,,
{8}5x/7x,7,5/7,7,5/7,7,5/7,,
{8}5x/6x,6,5/6,6,5x/6x,6,5/6,,
{8}4/5,4/5,4/5,6/7,6/7,,5b/8b,,
{8}1-5[8:1]/7,,6,6-2[8:1],,4,4-8[8:1],,
{16}1-5[8:1]*-6[8:1],,,,1,,,,4,3,2,1,5,6,7,8,
{8}2,2-6[8:1],,8,8-3[8:1],,5,5,
{16}4-7[8:1]*-8[8:1],,,,4,,,,1,2,3,4,8,7,6,5,
{8}1-5[8:1],,6,6-2[8:1],,4,4-7[8:1],,
{16}8-3[8:1]*-4[8:1],,,,8,,,,5,6,7,8,4,3,2,1,
{8}7,7-3[8:1],,1,1-6[8:1],,4,4,
{16}5-1[8:1]*v8[8:1],,,,5,,,,2,8,2,8,3/7,,,,
{8}4h[4:3]/6,,5,5,3,,2h[4:3],,
{8}3,3,1,,8h[4:3],,1,1,
{8}7,,6h[2:1],,7,7,5,,
{8}4>1[8:1],4,4bp8[8:1],,4b,,5>2[8:1],5,
{4}5bp1[8:1],5b,4V28[4:1],8V64[4:1],
{4}4>8[4:1],8w4[8:1],,2/6,
{16}5,,5,4,5,,3,,3,4,3h[8:1],,C1,,,,
{16}7,,7,8,7,,1,,1,8,1h[8:1],,C1,,,,
{16}8,2,8,2,8,,3,1,3,1,3,,4,2,4,2,
{16}4,,3,5,3,5,3,,6,4,6h[8:1],,C1,,,,
{12}2-6[8:1]/7>2[8:1],,,2/7,,,5,4,3,8,7,6,
{12}1-5[8:1]/5<8[8:1],,,1/5,,,4,3,2,7,6,5,
{12}4<7[8:1]/8-4[8:1],,,4/8,,,3,2,1,7,6,5,
{12}4-8[8:1]/8-3[8:1],,,4/8,,,7,6,5,1/4,,,
{12}2<7[8:1]/7-3[8:1],,,2/7,,,4,5,6,1,2,3,
{12}4>1[8:1]/8-4[8:1],,,4/8,,,5,6,7,2,3,4,
{12}1-5[8:1]/5>2[8:1],,,1/5,,,6,7,8,1/3,4,5,
{12}6h[4:1]/8,,,7,7,7,5,5,5,3,3,3,
{1}C1f/1b>8[2:3],
{4}E8,E1,E2,,
{1}1>8[2:3],
{4}E3,E4,E5,,
{1}1>8[2:3],
{4}E6,E7,E8,,
{1}1s5[1:1],
{4}E7,C1,E3,,
{12}6,5,6,4,5,4,6,5,6,3,4,3,
{12}6,4,5,3,4,3,5,4,5,4/6,,,
{12}3,4,3,5,4,5,3,4,3,5,4,5,
{12}2,4,3,5,4,6,5,7,4,3/6,,,
{12}2,4,3,6,5,7,3,5,4,6,5,6,
{12}4,5,3,6,4,5,2,4,3,6,5,7,
{12}3,4,3,6,5,6,2,4,3,7,5,6,
{16}1,8,1,8,2,7,2,7,1,2,3,4,5,6,7,8,
(220){1}1bs5[2:1]*V36[2:1],
{16}5,4,,4,5,,3/6,,8,1,8,1,2b/7b,,,,
{8}1>4[8:1],1,8,7,6<1[8:1],6,5,4,
{8}3<6[8:1],3,2,1,8-3[8:1],7-4[8:1],8x,7x,
{8}2>5[8:1],2,1,8,7>2[8:1],7,6,5,
{8}4<7[8:1],4,3,2,1,8,1/7,2/6,
{8}3>8[8:1],3,4,5,6>3[8:1],6,7,8,
{8}1<6[8:1],1,2,3,4-1[8:1],5-8[8:1],4x,5x,
{16}2,3,4,5,8,7,6,5,1,2,3,4,7,6,1h[4:1]/5b,,
{8},8,1/7,2/6,3/5,1,2/8,,
{8}5-8[8:1],5,4,3,2-5[8:1],2,1,8,
{8}7-2[8:1],7,6,5,4<7[8:1],3>8[8:1],4x,3x,
{8}6-1[8:1],6,5,4,3-6[8:1],3,2,1,
{8}8-3[8:1],8,7,6,5,4,3/5,2/6,
{8}7-4[8:1],7,8,1,2-7[8:1],2,3,4,
{8}5-2[8:1],5,6,7,8<5[8:1],1>4[8:1],8x,1x,
{16}7,8,1,2,3,4,5,6,5,4,3,2,1,8,7,6,
{8}1/5,2,3/6,7,1/8,1/8,2b-6[4:15]/7b-3[4:15],2b/7b,
{1},
{1},
{1},
{1},
(240){8}4/5,,3,3,4,,4/5,,
{8}6,6,5,,4h[4:1]/6h[4:1],,,,
{8}4/5,,6,6,5,,4/5,,
{8}3,3,4,,3h[4:1]/5,,4,,
{8}4/5,,3,3,4,,4/5,,
{8}6,6,5,,4/6,,4/6,,
{8}4/5,,6,6,5,,4/5,,
{8}3,3,4,,3h[4:1]/5,5,5,,
{8}1/8,,7-5[8:1],7,5,,2-4[8:1],2,
{8}4,,7,7,4/6,,1/8,,
{8}3/5,,2-4[8:1],2,4,,7-5[8:1],7,
{8}5,,2,2,3/5,,1/8,,
{8}4/6,,3-1[8:1],3,5,,6-8[8:1],6,
{8}4,,2,2,3/5,,1/8,,
{8}4/6,6,3/5,3,4/7,7,2/5,2,
{16}8,7,6,5,1,2,3,4,5/8b,,,,2b/6b,,,,
{8}3-8[8:1],7-4[8:1],3,7,1-4[8:1],6-1[8:1],1,6,
{8}5-2[8:1],8-5[8:1],5,8,1>4[8:1],6,7,8,
{8}5-2[8:1],7-4[8:1],5,7,1-4[8:1],5-8[8:1],1,5,
{8}3,7,1/8,1/8,2-5[8:1]/7-4[8:1],,2b/7b,,
{8}6-1[8:1],2-5[8:1],6,2,8-5[8:1],3-8[8:1],8,3,
{8}4-7[8:1],1-4[8:1],4,1,8<5[8:1],3,2,1,
{8}4-7[8:1],2-5[8:1],4,2,8,4,5,4,
{8}3h[8:1]/6b,6b,2b/7h[8:1],2b,1/8,1/8,2b/7b,,
{16}8,7,6,5,8<5[8:1],1,2,3,8-4[8:1],,,,6/8,,,,
{8}7v4[8:1],3,7,1,6v1[8:1],2,6,4,
{16}8,7,6,5,1<6[8:1],2,3,4,1-5[8:1],,,,1/7,,,,
{8}4/8,4/8,3/7,3/7,2/6,2/6,3/7,,
{16}4,3,2,1,4>1[8:1],5,6,7,4-8[8:1],,,,2/4,,,,
{8}3v8[8:1],7,3,5,2v5[8:1],6,2,8,
{16}4,3,2,1,5>2[8:1],6,7,8,5-1[8:1],,,,3/5,,,,
{8}4/8,4/8,3/7,3/7,2b/6,2b-7[64:5]/6-3[4:7],2b/6,2b/6,
{1},
{1},
{16}3,4,3,,2,,3,,6,,5,,4,,3,,
{8}5,6,4,3,4,5,6,3,
{8}2-5[8:1]/8-5[8:1],2/8,2b/8b,,,,3-8[8:1]/5-8[8:1],3/5,
{8}3b/5b,,,1,2,8,7,3,
{8}4/6,7,3/5,2,4/5,3b/6b,,2/8,
{8}3/4,1/7,5/6,2b/7b,4b/5b,C1f/1b,,,
{1},
{1},
{1},
E

Re:MASTER


名前:
コメント:

タグ:

+ タグ編集
  • タグ:
最終更新:2026年04月11日 18:05