BASIC
ADVANCED
EXPERT
MASTER
(182)
{1},
{8}B2/E3/B7/E7,,B4/E4/B5/E6,,B3,B6,E5,C1,
{16}E2,,E8,,E3,,E7,,E4,B4,B5,E6,C1,,,,
{8}7h[4:1],,6,6,,5/6,,5/7,
{8},E4,E6,E5,E7,E3,C1,,
{8}2h[4:1],,3,3,,3/4,,2h[4:1]/4,
{16},,E5,E6,E7,,4h[4:1],,,,7,,7,,5h[4:1],,
{8},6,4h[4:1],,5,3h[4:1],,4,
{8}2h[4:1],,3,1h[4:1],,8,2bqq5[8:13]/7bpp4[8:13],,
{1},
{1},
{8}4/5,,6x,6,5,4-8[8:1]/6,,7-3[8:1],
{8},1-6[8:1],,4-8[8:1],,3x-6[8:1],,8x,
{8},7,6,5,4/6,5,3,2h[4:1],
{8},4,3,5h[4:1],,3x,2h[4:1]/4,,
{8}4xh[4:1],,2,4x,3/5,6-3[8:1],,2-5[8:1],
{8},8-3[8:1],,5x,,4,5,3h[4:1],
{8}4x,5,6,4xh[4:1]/7,,6,5,7h[4:1],
{8}5x,4,3,2x/5x,,4x/7xh[8:3],,,
{1}8b-4[8:13],
{4},,8-4[8:1],8b,
{8}2x/5x,3-6[8:1],4,3x/5,,7-3[8:1],5,4/7x,
{8},2-6[8:1],4,2x/5,,8-4[8:1],6,5/8x,
{8},3,3,5,4/6,5/7h[4:1],,5h[4:1],
{24},,,6,,,6,,,5,,,7,,3,,5,,2,,4,,C1xh[48:43],,
{8},8,,8,,7,,7,
{16},,6,,6,5,7,4,6,,7,8,6,1,7,,
{48}2x/6x,,,,,,,,,5,,,5h[4:1],,,,,,,,,,,,3h[4:1],,,,,,,,,,,,4,,,,2,,,,4,,,,
{8}1-6[8:1],,5,5h[8:5],,7,8,1,
{16}2h[2:1],,E4,E3,E2,,,,8h[2:1],,E8,E7,E6,,,,
{6}3h[6:1],4h[6:1],5h[6:1],6h[6:1],7h[6:1],8,
{8}1/6,3,5,4/8,6,2,1/5,7,
{8}3,2/5,3-8[8:1]/4-8[8:1],,3/4>4[2:3]*<4[2:3],,4b,,
{1},
{16},,,,,,,,,,,,3,5,3,5,
{16}2h[8:1],,4,3,5,4,,4,7h[8:1],,5,6,4,5,,5,
{16}2h[8:1],,4,3,5,4,,4,7h[8:1],,5,6,4,5,,5,
{16}2h[8:1],,4,3,5,4,6h[8:1],,5,6,4,5,3h[8:1],,4,3,
{16}5,3,5,3,5,3,6x,3,5,2x,5,3,6xh[8:1],,3,5,
{16}2h[8:1],,4,3,5,4,,4,7h[8:1],,5,6,4,5,,5,
{16}2xh[8:1],,4,3,5,4,7xh[8:1],,4,6,2,4,1xh[8:1],,4,,
{16}3x/5x,,3x/5x,,3x/5x,,2,4,3,5xh[8:1],,4,6xh[8:1],,4,6,
{16}5,7xh[8:1],,5,6xh[8:1],,4,5,4,3,2,1,8,7,6,5,
{4}4-1[8:1],4<2[8:3]/5,6x,,
{4}8-3[8:1],2/8<2[8:3],4x,,
{8}1-6[8:1],,1>7[8:3]/7,,5x,,8,8h[4:1],
{16},,6,,5,,4/6,,3x/5,,2,4,2,,3/5,,
{8}4/6h[4:1],,5,6,5h[4:1],6,7-3[8:1],,
{8}5/7,4-6[8:1],,3>8[4:1]/4,,7,7,6,
{12}5h[4:1],,,4,6,6,2,4,4,7-1[8:1],5,5,
{4}7-5[8:1],3/7>4[8:3],4/7,,
{8}3x/7x,,4/6,5,4/6,,3/7,7,
{8}5/6,5,6,4,4/6,4,7,3,
{12}3/7,,,4/5h[4:1],4,4,4,,,2h[4:1]/6,6,6,
{12}6,,,7h[4:1]/8,8,8,8<5[8:1]*>3[8:1],,,8w4[8:1],,,
{8}8b,,1,2/4>1[8:1],,4/6,8<5[8:1],,
{32}3/8,,,,1>4[8:1],,,,,,,,1/6,,,,8h[4:1],,,,,,,,4,,,,,7x,5x-8[16:1],6x,
{32},,,,,2b/5b,,,,,,3-6[16:1],,,,,,,,,7b,,,,,,1w5[16:1],,,,,,
{16}1b,,,,,,,,3/8,,,,7,4,5,4,
{1}6<3[4:7],
{1},
{1}4h[4:7],
{4},,,5,
{8}3,3,4,4,5,5,6,6h[4:1],
{8},3,3,4,4,5,4/5,,
{48}4/5,,,,,,3,,,4,,,2,,,,,,1/5,,,,,,2/4,,,,,,5,,4,,6,,5,,,,,,3/7,,,,,,
{8}8>6[8:3],2,3,4,,,3x/7x,,
{12}4,4,8,5,5,1,3,3,7,1,1,5,
{12}2,8,4,6,8,4,1,7,3,1-5[8:1],5,7,
{8}1x,,6,6,3/5,2,3/5,4,
{16}6<4[2:1],,,5,5h[2:1],,,,,,,,,,,,
{16}3h[4:1]/6x,,,,4,4,2h[4:1],,,,4,4,1h[4:1],,,,
{16}4,4,8h[4:1],,,,4,4,1,,2,,3,,4,,
{8}5h[4:1],,6,5,4/6,,3/7h[4:1],,
{12}1,,8,1,7,,2/6,,3,5<3[4:3],4,,
{1}5x/7,
{16}4/5,,3/6,,2,4,,7,5,,1,8,2b/7b,,,,
{16}E7,B6,B4,E4,E6,B5,B3,E3,E8,B8,B1,E2,E6,B5,B4,E4,
{16}E7,B7,B1,E2,E8,B8,B2,E3,C1xh[4:1],,,,B3/B7,,,,
{8}1-5[8:1],,1,8<5[8:1],,5/8-4[8:1],,1/8,
{16},,2,3,4,6,7,8,3,4,6,7,2,3,5,6,
{8}1/7-3[8:1],,7,2>5[8:1],,2-6[8:1]/4,,2/8,
{16},,7,8,7,,1h[4:1]/6,,,,8,,2/7,,3/6h[8:3],,
{16}4x,,5,,5,,5,6,4h[8:1],,5x,4,5,,7x,8,
{16},2x,1,3,6x,5,,3x,4,,1x,7,1x,7,1x,7x,
{16}1b,2,3,4,2,3,4,5,3,4,5,6,2,3,4,5,
{16}8,7,6,5,7,6,5,4,6,5,4,3,7,6,5,4,
{8}1-5[8:1],,1,6-8[8:1],,5-1[8:1]/6,,5/8x,
{16},,7,6,5,3,2,1,6,5,3,2,7,6,4,3,
{8}2-5[8:1]/8,,2,8-3[8:1],,4-1[8:1]/8,,4x/5,
{16},,8,2,8,,3/7h[4:1],,,,5,,4/6,,3,,
{16}2x/5x,,3,4,,7,8,6,2,1,,7,5,,3/4,,
(172){8}3/4,1/8,3/5,4/7,6/8,2/5,(182)1/4,1/4,
(126){64}1/4,,2/5,,3/6,,4/7,,5/8h[8:1],,,,,,,,(92)5,,,,,,,,,,,,,E6,B5,B4,E4,,,,,,,,,,,,,,,,,,,,,,,,,,,,,,,,
(84){16}E4,,,B4,,B5,,,6-3[2:1],,,,,,,,
{1},
{1},
{1},
E
Re:MASTER
最終更新:2026年03月30日 21:57