アットウィキロゴ

Alcyone

アーティスト PRASTIK DANCEFLOOR

BPM BASIC ADVANCED EXPERT MASTER Re:MASTER
176 4 7+ 12 14 -

EXPERT MASTER Re:MASTER
譜面制作者 隅田川星人 シチミヘルツ -

BASIC


ADVANCED


EXPERT


MASTER

(176)
{1},
{1},
{32}4b/8b>7[2:3],3/7,2/6,1/5h[32:61],,,,,,,,,,,,,,,,,,,,,,,,,,,,,
{1},
{2}8<1[2:3],E7,
{2}E1,E3,
{16}4h[2:1],,,,,,E8,B8,B1,,,,,,,,
{8}4/5,,3/6,4,,4,3/6,,
{2}1>8[2:3],E3,
{2}E1,E7,
{16}5h[2:1],,,,,,E4,B4,B5,,,,,,,,
{8}1/8,,2/7,8,,8,2/7,,
{8}4h[2:3]/6,,,3,3,3,3,3,
{8}3,3,3,3,2h[4:1],,5h[4:1],,
{8}1,1V73[8:3],,2h[4:1],,,,,
{8}1,1V73[8:3],,4h[4:1],,,,,
{8}2/5h[2:3],,,6,6,6,6,6,
{8}6,6,6,6,7h[4:1],,4h[4:1],,
{8}8,8V26[8:3],,7h[4:1],,,,,
{4}4-2[8:1]/8-6[8:1],8-4[8:1],8,2b/6b,
{24}1/7,,,1/7,6,5,4,,,2/8,,,2/8<1[2:1],3,4,5,,,C1f,,,,,,
{16},,,,,,,,6,5,6,,4/7,,,,
{24}2/8,,,2/8,3,4,5,,,1/7,,,1>8[2:1]/7,6,5,4,,,C1f,,,,,,
{16},,,,,,,,3,4,3,,2/5-1[8:1],,,,
{24}4h[8:1],,,,,,,,,2/8,,,2/8>7[2:1],3,4,5,,,C1f,,,,,,
{16},,,,,,,,6,5,6,,4/7,,,,
{24}2/8,,,2/8,3,4,5,,,1/7,,,1<2[2:1]/7,6,5,4,,,C1f,,,,,,
{16},,,,,,,,3,4,3,,2/5q6[4:7],,,,
{4}E3,E2,E1,E8,
{4}E7,E5,E4,E3,
{8}C1hf[2:1]/1,1,1,1,1,1,1,1,
{16}1,8,1,8,2,7,2,7,3,6,4,5,1b,,,,
{16}2V48[16:3]/6,,,8<2[16:5],,,6x,,6xh[4:1],,,,,,7,8,
{16}7V51[16:3],,,1>7[16:5],,,3x,,3x,,,,1,,,,
{16}3/8,,6,5,,3,4,2,4,,1,8,,6,5,7,
{16}5,,8,1,,3,4,,2h[8:1]/5h[8:1],,,4h[8:1]/7h[8:1],,,1/6,,
{16}2/8h[16:3],,,4h[16:3],,,7,5,6,4,5,3,4,2,3,1,
{16}2h[16:3],,,8h[16:3],,,5h[8:1],,2,4,3,5,4,6,5,7,
{16}6,,1,2,,4,3,,2/5,,8,7,,5,6,,
{16}4/7,,1,8,2-6[8:1],7,3,6,2,,,,4b/8b,,,,
{16}2V48[16:3]/6,,,8<2[16:5],,,6x,,6xh[4:1],,,,,,7,8,
{16}7V51[16:3],,,1>7[16:5],,,3x,,3x,,,,1,,,,
{16}3/8,,6,5,,3,4,2,4,,1,8,,6,5,7,
{16}5,,8,1,,3,4,,2h[8:1]/5h[8:1],,,4h[8:1]/7h[8:1],,,1/6,,
{16}2,4,3,7,5,6,1h[4:1],,,,7,8,1/6,,,,
{16}7,5,6,2,4,3,8h[4:1],,,,2,1,3/8,,,,
{16}1,2,3,4,5,6,7,8,4,3,2,1,8,7,6,5,
{16}1,2,6,5,2,3,7,6,3,4,8,7,1b/6,,,,
{4}2x-5[8:1]/8h[8:1],8h[8:1],5x-1[8:1]/8h[8:1],8h[8:1],
{4}1x-6[8:1]/8h[8:1],8h[8:1],6x-3[8:1]/8h[8:1],8,
{4}1h[8:1]/7x-4[8:1],1h[8:1],1h[8:1]/4x-8[8:1],1h[8:1],
{4}1h[8:1]/8x-3[8:1],1h[8:1],1h[8:1]/3x-6[8:1],1,
{4}2-6[8:1]/8,8>3[8:1],5-8[8:1],5,
{4}1/7-3[8:1],1<6[8:1],4-1[8:1],4,
{4}8<5[8:1],8>3[8:1],4-7[8:1],4-1[8:1],
{16}8-4[8:1],,,,1x/8,,,,2,1,2,1,3/8,,,,
{4}4h[8:1]/6x-1[8:1],4h[8:1],1x-5[8:1]/4h[8:1],4h[8:1],
{4}4h[8:1]/5x-2[8:1],4h[8:1],2x-7[8:1]/4h[8:1],4,
{4}3x-8[8:1]/5h[8:1],5h[8:1],5h[8:1]/8x-4[8:1],5h[8:1],
{4}4x-7[8:1]/5h[8:1],5h[8:1],5h[8:1]/7x-2[8:1],5,
{4}4/6-2[8:1],4<7[8:1],1-4[8:1],1,
{4}3-7[8:1]/5,5>2[8:1],8-5[8:1],8,
{4}1-5[8:1],1<6[8:1]/5>2[8:1],,1/5,
{16}3,7,3,7,2,6,2,6,1/5,2/6,3/7,4/8,1h[4:1]/5,,,,
{1}C1f,
{1},
{4}3,3<6[2:1],C1,,
{4},B4/B5,B6/B7,,
{4}3,3<6[2:1],C1,,
{4},B4/B5,B6/B7,,
{4}3,3<6[2:1],C1,,
{4},B4/B5,B6/B7,,
{4}3,3-5[4:1],C1,,
{8}8h[4:1],,1,1,7,8,6,2,
{4}3/5,4/5<8[2:1],C1,,
{4},B6/B7,B2/B3,,
{4}5,4/5<8[2:1],C1,,
{4},B6/B7,B2/B3,,
{4}5,4/5<8[2:1],4z8[4:11],,
{4},E7,E3,,
{2},C1hf[2:3],
{1},
{4}1h[2:1],8,7h[2:1],6,
{4}5h[2:1],4,3h[2:1],2,
{8}1,1,1,1,1,1,1,1,
{32}1,,8,,1,,8,,1,,8,,1,,8,,1,2,3,4,5,6,7,8,1-5[8:1]/5,,,,,,,,
{16}1b/8,,,,,,,,,,4,5,3/6,,,,
{16}3/8,,2>5[8:1],1,,1,2,,8h[8:1],,6-1[8:1],7,,7,6,,
{16}5h[8:1],,2<7[8:1],4,,4,2,,3h[8:1],,6,4,6,4,7,,
{16}6/8,,7<4[8:1],8,,8,7,,1h[8:1],,3-8[8:1],2,,2,3,,
{16}4h[8:1],,7>2[8:1],5,,5,7,,6h[8:1],,3,5,3,5,2,,
{8}1/3,2/8p5[8:3]*q3[8:3],,8b,,,,,
{16}5,2,5,2,6,3,6,3,7,4,7,4,8,,,,
{8}6/8,1p6[8:3]*q4[8:3]/7,,1b,,,,,
{16}4,7,4,7,3,6,3,6,2,5,2,5,1,,,,
{16}2/6,,3>8[8:1],5,,5,3,,4h[8:1],,7-4[8:1],5,,5,7,,
{16}8h[8:1],,3<6[8:1],1,,1,3,,2h[8:1],,7,1,7,1,6,,
{16}5/7,,6<1[8:1],4,,4,6,,5h[8:1],,2-5[8:1],4,,4,2,,
{16}1h[8:1],,6>3[8:1],8,,8,6,,1,,1h[8:1],,4,5,6,7,
{16}1,2,3,4,1,2,3,4,1,2,7,6,2,3,6,5,
{16}1,8,7,6,1,8,7,6,2,3,8,7,3,4,7,6,
{16}2,1,8,7,2,1,8,7,2,3,6,5,1,2,7,6,
{16}4,5,6,7,4,5,6,7,3,4,7,6,2,3,8,7,
{4}1>5[4:1],5<1[4:1],1>5[4:1],5V71[4:1],
{4}1V35[4:1],5,1-4[8:1]*-6[8:1],1,
{16}2,1,2,1,3,,7,8,7,8,6,,1,8,1,8,
{24}1b,2x,3x,4x,5x,6x,8b,7x,6x,5x,4x,3x,8b,1x,2x,3x,4x,5x,1b,8x,7x,6x,5x,4x,
{1}3x/8b-4[4:13]*V61[4:13],
{1},
{1},
{1},
{1},
{1},
E

Re:MASTER


名前:
コメント:

タグ:

+ タグ編集
  • タグ:
最終更新:2026年03月26日 21:43