アットウィキロゴ

熱異常

アーティスト いよわ

BPM BASIC ADVANCED EXPERT MASTER Re:MASTER
183 4 7+ 10 12 13+

EXPERT MASTER Re:MASTER
譜面制作者 サファ太 緑風 犬三郎 はっぴー

BASIC


ADVANCED


EXPERT


MASTER

(183)
{4}4,4,4,
{8}3,3,4,,4,,4,,5,5,4,,4,,4,,3,3,4,,4,,4,,3,3,5,,5,,5,,6,6,5,,5,,5,,4,4,5,,5,,5,,6,6,5,,5,,5,,6,6,4,,4,,4,,3,3,4,,4,,4,,5,5,4,,4,,4,,3,3,4,,4,,4,,3,3,5,,5,,5,,6,6,5,,5,,5,,4,4,5,,5,,5,,6,6,5,,5,,5,,3/6,6/3h[2:1],,,,5,5,,7h[8:3],5,4,3h[8:3],5,6,7h[8:3],5,4,3h[8:3],5,6,7,5,4,3,2h[8:3],4,5,6h[8:3],4,3,2h[8:3],4,5,6h[8:3],4,3,2,5,6,7,8h[8:3],1,1,2h[8:3],1,1,8h[8:3],1,1,2h[8:3],1,1,8h[8:3],1,1,2h[8:3],1,1,8h[8:3],1,1,2h[8:3],1,1,8w4[4:1],8,,,,,3/5,,2h[8:3],4,5,6h[8:3],4,3,2h[8:3],4,5,6h[8:3],4,3,2,4,5,6,7h[8:3],5,4,3h[8:3],5,6,7h[8:3],5,4,3h[8:3],5,6,7,4,3,2,1h[8:3],8,8,7h[8:3],8,8,1h[8:3],8,8,7h[8:3],8,8,1h[8:3],8,8,7h[8:3],8,8,1h[8:3],8,8,7h[8:3],8,8,1q4[2:1],1,,,,,
{4}6xh[1:1],,,,5b,7-4[8:1]/8-3[8:1],7/8,2h[4:1],4h[4:1],5h[4:1],
{8}7,7,1-5[8:1],,6,,7,7,5,,3,3,4-8[8:1],,
{4}2-6[8:1],6,5,3/4,1-6[8:1]/2-5[8:1],1/2,7h[4:1],5h[4:1],4h[4:1],
{8}2,2,6,,3/5,,7,7,5,5,8,8,1,1,4,4,3/5,,
{4}1-4[8:1]/8-5[8:1],1xb/8xb,6-3[8:1],2-7[8:1],6-1[8:1],2-5[8:1],8^5[8:1],4^1[8:1],8^5[8:1],4,2^7[8:1]b,5,6^3[8:1]b,1,2^7[8:1]b,5,6-4[8:1]b,1,2b-5[8:1],1-6[8:1],3-8[8:1],4-7[8:1],2-6[8:1],8-4[8:1],5,3,
{8}2,2,8,8,1,1,6,6,5,4,3^8[8:1],,
{4}5-8[8:1],1xb,,
{8}1h[2:1]/7h[2:1],,,,,2/6,,,2h[2:1]/5h[2:1],,,,,4/6,,,7h[2:1]/8h[2:1],,,,,3/5,,,2h[2:1]/6h[2:1],,,,,4/7,,,1h[2:1]/5h[2:1],,,,,A3/B1/B2/E1/E3,,,4h[2:1]/7h[2:1],,,,,A6/B4/B5/E4/E6,,,1h[2:1]/2h[2:1],,,,,A8/B1/B2/E1/E3,,,4h[2:1]/6h[2:1],,,,,A2/B3/B4/E3/E5,,,6-1[8:1],,5/6,,,3,2/4,,3-8[8:1],,3/4,,,6,5/7,,6-1[8:1],,5/6,,,3,2/4,,3-1[8:1],,4,5,6-8[8:1],,5,4,3-8[8:1],,3/4,,,6/8,6/8,,4/6-1[8:1],,5/6,,,1/3,1/3,,5/3-8[8:1],,3/4,,,6/8,6/8,,
{4}4/6-4[8:1],3-7[8:1],8-2[8:1],4pp1[1:1],,,,,
{2}7h[1:4],,E6,E7,E8,,E1,E2,2h[1:4],,E4,E3,E2,,E8,E7,6h[1:4],,E8,E7,E6,,E5,E4,3h[1:4],,E2,E3,E4,,E6,E7,
{4}7b,2/8,8/2h[4:1],4h[4:1],5h[4:1],7-3[8:1],2-8[8:1],6-4[8:1],1h[4:1],
{8}3,3,2h[8:1]/4h[8:1],,
{4}2h[8:1]/4h[8:1],3h[8:1]/5h[8:1],4h[8:1]/6h[8:1],5h[8:1]/7h[8:1],5h[8:1]/7h[8:1],4/8,3-6[8:1],7-2[8:1],4,8,7s3[8:3],1h[2:1],,4x,2h[8:1]/8h[8:1],2h[8:1]/8h[8:1],4h[8:1]/6h[8:1],2h[8:1]/4h[8:1],5h[8:1]/7h[8:1],3h[8:1]/6h[8:1],1h[8:1]/8h[8:1],2b/7b,3/5,5/3h[4:1],1h[4:1],8h[4:1],6-2[8:1],3-5[8:1],7-1[8:1],2h[4:1],
{8}4,4,1h[8:1]/3h[8:1],,
{4}1h[8:1]/3h[8:1],2h[8:1]/8h[8:1],1h[8:1]/7h[8:1],6h[8:1]/8h[8:1],6h[8:1]/8h[8:1],1b/5b,2b-7[8:1],6-3[8:1],
{8}1,1,5,,6,6,7q3[4:1]*p3[4:1],,,,,,
{4}3h[8:1]/5h[8:1],3h[8:1]/5h[8:1],1h[8:1]/7h[8:1],1h[8:1]/3h[8:1],6h[8:1]/8h[8:1],2h[8:1]/7h[8:1],4h[8:1]/5h[8:1],3b/6b,
{8}1,1,8-4[8:1],,3,3,2-7[8:1],,6-3[8:1],,4-1[8:1],,8,8,7^1[8:1],,3^5[8:1],,8,8,7/1-5[8:1],,6-3[8:1],,2-6[8:1],,7,7,5,,
{4}3/4,1-5[8:1]/2-6[8:1],1/2,
{8}7,7,7-3[8:1]/8-4[8:1],,7/8,,2,2,1-5[8:1]b/2-6[8:1]b,,1/2,,7,7,7-3[8:1]b/8-4[8:1]b,,7/8,,2,2,1s5[8:3]/8z4[8:3],,,,,,6-1[8:1],,4,4,3-8[8:1],,
{4}7-4[8:1],3h[4:1],1h[4:1],8h[4:1],6-4[8:1],
{8}3,2,1-5[8:1],,6,7,8-4[8:1],,3,2,1-5[8:1],,6,7,8h[4:1],,2,,4/6,3,2,4/6,7,8,4/6,3,2,4/6,7,8,3/7,2,1,3/7,8,1,3/7,2,1,3/7,8,1,2/8,1,1-5[8:1],,7x-3[8:1]b,,7xb,
E

Re:MASTER

(183){8}5-8^1[2:3],,4,,4,,4,,4,,4,,4,,4,,4,,4,,4,,3,3,4,,4,,4,,5,5,
4,,4,,4,,3,3,4,,4,,4,,5,5,4,,4,,4,,3,3,5,,5,,5,,6,6,
5,,5,,5,,4,4,5,,5,,5,,6,6,5,,5,,5,,4,4,5,,5,,5,,6,6,
5,,5,,5,,4,4,5,,5,,5,,6,6,5,,5,,5,,4,4,5,,36,,1-5[8:1],8-4[8:1],,,
{16},,,,,,4h[8:1]/5h[8:1],,,,,,7,,7,5,6,,45,,2,,2,4,3,,45,,7,,7,5,6,,35,,2,,18,,
7,,46,,2,,2,4,3,,45,,7,,7,5,6,,45,,2,,2,4,3,,45,,7,,7,5,
{8}6,35,2-6[8:1],1,7,8-4[8:1],1,3,2-6[8:1],1,7,8-4[8:1],1,3,2-5[8:1],1,
7,8p4[8:1],1,3,2v5[8:1],1,7,8-5[8:1],1,3,2qq5[4:1],1,5,,,,
{16}46,,,,2,,2,4,3,,45,,7,,7,5,6,,45,,2,,2,4,3,,46,,7,,18,,
2,,35,,7,,7,5,6,,45,,2,,2,4,3,,45,,7,,7,5,6,,45,,3,,3,5,
{8}4,,6^8[8:1],5,4,3^1[8:1],4,5,6-8[8:1],5,4,3-1[8:1],4,5,6,5,4,3,4,5,E6,E5,E4,B3,B4,B5,6p4[2:1],6,,,,,
{4},,,,5b/2b-7[8:1],2/6-3[8:1],6/2-5[8:1],2/6-1[8:1],6/3-8[8:1],3/5V74-8[4:1],35,2-6[8:1]b,
2/7x-4[8:1],7/2^7[8:1],2/5-8[8:1],5/4-1[8:1],4/6-8[8:1],6/3-1[8:1],3/5-8[8:1],5/1w5[8:1]b,
1x,7/3-6[8:1],3/8-4[8:1],8/2^5[8:1],2/6^1[8:1],6/3V52-6[4:1],7,8-4[8:1],
8/5-1[8:1],5/6-8[8:1],6/4-2[8:1],4/5-1[8:1],5/2-6[8:1],2/7-3[8:1],7/4-1[8:1]b,46,
{8}2b/7b-5[8:1],,2-6[8:1],3,7-4[8:1],8,3-1[8:1],2,6,5,6/4V25-1[4:1],,8,8,7-4[8:1]b,,
2x-5[8:1],,7^1[8:1],6,4-2[8:1],3,5-7[8:1],6,2-4[8:1],3,7-5[8:1],6,3,2,8w4[8:1]b,,
,,2/6-4[8:1],7,1-4[8:1],8,7-1[8:1],6,2,3,4/6V47-3[4:1],,2,2,1-5[8:1],,
8-4[8:1],,3-1[8:1],2,5-7[8:1],6,1-5[8:1],2,8-6[8:1],7,4-2[8:2],3,5-1[8:1],6,3^6[8:1],2,8h[2:1],,,,
(137){4}B1/B2/E2,,A5/A6/B5/B6/D6/E6,B2/B3/E3/E4/Ch[2:1],,B7/B8/E8,
A1/B1/D1/E2,,A4/B3/D4/E4,B5/B6/B7/E6/Ch[2:1],,B1/E1/E2,
A8/B8/D8/E8,,A5/B5/D5/D6,B1/B2/B3/E3/Ch[2:1],,B6/B7/E7,
A1/A8/B1/B8/E1,,A4/B4/E4/E5,B7/B8/E7/E8/Ch[2:1],,B4/B5/E5,
(183){8}2x-6[8:1]/A7/D8/E8,,2x,,,1/B5/B6/E6,1,,2v5[8:1]/B3/B4/E4,,2,,,1/A8/D8/E8,1,,
2-6[8:1]/A6/D6/E6,,2,,,1/B7/E7/E8,1,,2q6[8:1]/A8/D1/E1,,2,,,1/B5/B6/E6,1,,
7-3[8:1]/B4/E4/E5,,7,,,8/A2/D3/E3,8,,7v4[8:1]/A1/B1/E2,,7,,,8/A5/D5/E5,8,,
7-3[8:1]/B3/B4/E4,,7,,,8/B5/B6/E6,8,,7p3[8:1]/A4/D4/E4,,7,,,18,1-5pp7[4:3]/8-4qq2[4:3],,
{8},,,,,,,,6,5,4,3h[8:5],,,,,6,5,4h[4:1],,5,4,3h[4:1],,6,5,4,3h[8:5],,,,,6,5,4h[4:1],,5,4,3h[4:1],,
6,5,4,3h[8:5],,,,,6,5,4h[4:1],,5,4,3h[4:1],,6,5,4,3h[8:5],,,,,6,5,4h[4:1],,5,4,3>6<3[1:2],,
{4}3,,,,4,4,5,6<3>6[1:2],6,,,,5,5,4,3>6<3[1:2],3,,,,4,4,5,6<3[1:1],6,,,,,,,2-4[8:1],
2b/1b-5[8:1],1/8-4[8:1],8/7-5[8:1],7/2-4[8:1],2/1-5[8:1],1/8-4[8:1],8/7-5[8:1],7/1w5,
1,7/3-1[8:1],3/4-8[8:1],4/5-1[8:1],5/6-8[8:1],6/4qq2[8:1],4/5pp7[8:1],45,
6x/3x-1[8:1],3/7-5[8:1],7/8-4[8:1],8/5qq3[8:1]*pp7[8:1],,4qq2[8:1]*pp6[8:1],,5>1[4:1],
1<5[4:1],5V31[4:1],1V75[4:1],5>1[4:1]b,1b<5[4:1]b,5bV31[4:1]b,1b-5[8:1]b,5b,
{8}8b/2b-4[8:1],,6-8[8:1],5,2-5[8:1],1,8-4[8:1],7,3-8[8:1],2,5,6,25,3,4v1[8:1]b/6v1[8:1]b,,
,,2^8[8:1],3,5-8[8:1],6,4-1[8:1],3,7-5[8:1],8,2-4[8:1],1,5,6,7/1-4[8:1]*v6[8:1],,
,,7x/3x-5[8:1],2,8-5[8:1],1,2^4[8:1],3,6^8[8:1],5,3pp6[4:1],,7,7,8-2[8:1],,
5-1[8:1],4,6-8[8:1],7,4-2[8:1],3,5-1[8:1],6,2-6[8:1],3,7-2[8:1],8,4-8[8:1],5,6,6,
{16}1/7,,,,2x,,2,4,3,5,4,,7x,,7,5,6,4,5,,2x,,2,4,3,,46,,7,,18,,
2,,35,,7x,,7,5,6,4,5,,2x,,2,4,3,5,4,,7x,,7,5,6,4,5,,2x,,2,4,
3,,46,,7-3[8:1],,8,,73,,2,,2,4,2,4,1-5[8:1],,8,,16,,7,,7,5,7,5,8-4[8:1],,4,,
38,,2,,2,4,2,4,2-6[8:1],,1,,26,,7,,7,5,7,5,7V35[4:1],,8,,1h[2:1],,,,,,,,
6b,,,,7x,,7,5,6,4,5,,2x,,2,4,3,5,4,,7x,,7,5,6,,35,,2,,18,,
7,,46,,2x,,2,4,3,5,4,,7x,,7,5,6,4,5,,2x,,2,4,3,5,4,,7x,,7,5,
6,,35,,2b,4,3,4,3,4,2b,4,3,4,3,4,1b,4,3,4,3,4,8b,4,3,4,3,4,7b,4,3,4,
3,4,6b,4,3,4,3,4,5b,4,3,4,3,4,2b,4,3,4,3,4,1b>8[4:1]b,,,,,,,,1x-4^5[8:1]
E

名前:
コメント:

タグ:

+ タグ編集
  • タグ:
最終更新:2026年07月25日 22:43