アットウィキロゴ

エータ・ベータ・イータ

アーティスト ルゼ

BPM BASIC ADVANCED EXPERT MASTER Re:MASTER
186 6 7+ 12 14 -

EXPERT MASTER Re:MASTER
譜面制作者 Jack チャン@DP皆伝 -

BASIC


ADVANCED


EXPERT


MASTER

(186)
{8}6,6/5,,5/6,,4/7,,4/7,
,3/8,,3/8,,1/2,2,1/2,
,7/8,,7/8,,6/1,,1/6,
,2/5,,2/5,,3/4,3,3/4,
,4/6,,4/6,,3/7,,2/8,
1x/7x,,,7x/8x,,{16},1x/8x,,,2x/1x,,
{4}2h[4:5]/8h[4:5],,,,
,{16},,1,1,1,1,1,,3b/7b,,,,
3,,4,,2,,8,2,8,,7,,8,,6,,
6/5,,7,,4,,B3,E3,B2,B1,E1,,6x,,,,
6,,5,,7,,1,7,1,,2,,1,,3,,
3/4,,2,,5,,B6,E7,B7,B8,E1,,3x,,,,
3,,4,,2,,8,2,8,,7,,8,,6,,
6/5,,7,,4,,B3,E3,B2,B1,E1,,6x,,,,
6,,5,,7,,1,7,1,,2,,1,,3,,
3/4,,5,6,7h[8:3],,5,4,3h[8:1],,,,C1f/B3/B7,,,,
2,,8,,2,,7,7,8,,6,,4,,5,,
3/4,,8,,1,,B2,B3,E4,B4,B5,,7x,,,,
7,,1,,7,,2,2,1,,3,,5,,4,,
6/5,,1,,7,,1,2,3b/C1f,,,,7b/C1f,,,,
7,,1,,7,,2,2,1,,3,,5,,4,,
6/5,,1,,8,,B7,B6,E6,B5,B4,,2x,,,,
2,,8,,2,,7,,{12}4x,4x,6x,{16}6x,,,,
7,,4/6,,5,,4/6,,5,4,5,4,{8}5b,,
4h[4:1],,6>3[8:1],6,,,2,2,
5h[4:1],,3,6h[4:1],,4,4,5,
6q2[4:1],,2>5[4:1],,5-1[8:1],,,,
4,,4/6,,3/7,3/7,4/6,4/6,
3h[2:1],,6,5,,,4,3,
5/2h[4:1],,4h[8:1],3h[8:1],5h[8:1],4h[8:1],6h[8:1],5h[8:1],
6h[8:1],{16}5x<3[8:3],5x,{8},,,,,,
,5x/7x,4x/6x,3x/5x,2x/4x,1x/3x,2x/4x,3x/5x,
6,,7b/8b,,5/6,,3,4,
3h[4:3],,2,2,,4,4,4qq2[8:3]*pp6[8:3],
,,,,,,7p3[4:1],,
3p7[4:1],,,,5,5,4,4,
3p7[8:3],,5,6,,,6,5,
7,,7h[8:1],5h[8:1],6h[8:1],4h[8:1],5h[8:1],3h[8:1],
{16}5x,5x,,2x,2x,,4x,4x,,3x,{8}3x,2/5,3h[8:3]/4h[8:3],
,,,,{16}5,4,5,4,5b,,,,
{1}Ch[1:3]/2p6[2:1],7q4[2:1],3p7[2:1],8z4[2:1],
Ch[1:2]/6q3[2:1],2p6[2:1],
{8}5p7[2:1],,,,,,,5hx[8:5],
,{16},6hx[16:5],,,,,,,4x,5x,4x,5x,4x,,
2x/8x,,,5/6,,,3/4,,,5/6,,,3/4,,3x/6x,,
,5/6,,,3/4,,,5/6,,,3/4,,,5/6,,2x/7x,
,,7/8,,,1/2,,,7/8,,,1/2,,,6/8,,
5x/7x,,,4,4x,,,5,5x,,,3,3x,,7,6,
5,,2,,,,8,,1,,7,7,,,8,8,
,,6,,6,,,5,6,,5,6,,5,6,,
5,6,5,6,5,6,5,6,4,5,4,5,4,5,4,5,
3,4,3,4,3,4,3,4,{4}3b,,
5/2q5[4:3],5,6,6,
7,7,8,7b,
4/7p4[4:3],4,3,3,
2,2,1,2b,
5/2q5[4:3],5,6,6,
7,7,8,7b,
{16}3b,4,3,4,3,,,,6b,5,6,5,6,,,,
2b,4,2,4,2,,,,7b,5,7,5,7,,,,
5/6,,,,3/4,,,,5/6,,,,3/4,,,5/6,
,,2/4,,,3/5,,,4/6,,,5/7,,,6/8-4[8:11],,
{4},,,,
,,,C1f,
{16}2,8,2,8,2,,3/8,,2,1,2,1,8,7,6,5,
8,1,2,8,7,6,5,4,8,1,2,3,4,,,,
7,1,7,1,7,,1/6,,7,8,7,8,1,2,3,4,
1,8,7,1,2,3,4,5,1,8,7,6,5,,,,
2,1,3,8,2,1,3,8,2,1,3,8,2,1,3,8,
7,6,5,1,2,3,1,8,7,1,2,3,8,7,6,5,
3,4,3,4,3,,2/6,,1,7,1,7,1,2,3,4,
1,8,7,1,2,3,4,,{12}7x,7x,2x,{16}2x,,,,
C1f,,,,8,,3,,7,1,7,1,8,E2,E3,E4,
E8,E7,E6,E1,C1,E5,8,,2,1,2,1,2,,,,
7,8,7,8,7,,2,,1/6,,,3/8,,,1/6,,
,3/4,,,1/8,,,4/6,,,2/8,,1/7,,,,
2,8,2,8,E3,B3,B4,E5,8,2,8,2,E8,B7,B6,E6,
E1,C1,E5,E8,E7,E6,E2,E3,E4,E1,C1,E5,4,3,2,1,
{8}4/8,4/8,1/5,1/5,2/6,2/6,3/7,3/7,
{1}8/4>5[2:1],
{16}4,4,4,4,4,,3/5,,4,4,4,4,4,4,4,4,
4,4,4,4,4,4,4,4,4,4,4,4,4b,,,,
5,5,5,5,5,,4/6,,5,5,5,5,5,5,5,5,
5,5,5,5,5,5,5,5,5,5,5,5,5b,,,,
3,3,3,3,3,3,3,3,3,3,3,3,3,3,3,3,
3,3,3,3,3,3,3,3,3,3,3,3,3b,,,,
6,6,6,6,6,6,6,6,6,6,6,6,6,6,6,6,
6,6,6,6,6,6,6,6,6,6,6,6,6b,,,,
4b/6b,,,,2b/4b,,2b/4b,,,7b/8b,,,1b/8b,,,1b/2b,
,,3b/8b,,,2b/7b,,,1b/6b,,,C1f,,,,,
3b/5b,,,,4b/6b,,,5b/7b,,,1b/2b,,,1b/8b,,,7b/8b,
,,1b/6b,,,2b/7b,,,3b/8b,,,C1f,,,,
8,,,1,1,,,8,7,6,5,,8,1,2,3,
4,6,4,6,3,7,3,7,2,8,2,8,2,8,2,8,
1,,1,,1,,1,8,1,,,8,1,,1,,
1,1,1,1,1,,1,1,1b,,,,C1f,,,,
{1}1z5[4:5]/8s4[4:5],,5-8[4:5]*qq5[4:5],,
5z1[4:5]/4s8[4:5],,
{8}1/8,,3x/6x,,,1x/4x,,,
5x/8x,,,2x/7x,1x/8x,,C1f,,
,,{32}6x,5x,6x,5x,{16}6x,,,,,,5,5,5,5,
5,,,,{32}3x,4x,3x,4x,{16}3x,,,,,,4,4,4,4,
4,,,,6,6,6,6,6,,,,3,3,3,3,
3,,,,7,7,7,7,7,,,,2,2,2,2,
2,,,,8,,,,8,8,8,8,8,8,8,8,
8,,,,1,,,,1,1,1,1,1,1,1,1,
1,,,,1,,,,1,1,1,1,1,1,1,1,
1b,1,1,1,1,1,1,1,1b,1,1,1,1,1,1,1,
1b,1,1,1,1b,1,1,1,1b,1,1,1,1b,1,1,1,
1b,1,1b,1,1b,1,1b,1,1b,1b,1b,1b,{4}1bw5[8:1],
1b/C1f,
E

Re:MASTER


  • MASTER譜面の3b/5b,,,,4b/6b,,5b/7b,,,1b/2b,,,1b/8b,,,7b/8b,,,1b/6b,,,2b/7b,,,3b/8b,,,C1f,,,,,→3b/5b,,,,4b/6b,,,5b/7b,,,1b/2b,,,1b/8b,,,7b/8b,,,1b/6b,,,2b/7b,,,3b/8b,,,C1f,,,,の箇所の修正を行いました。 -- けもがみ (2026-05-16 12:32:10)
名前:
コメント:

タグ:

+ タグ編集
  • タグ:
最終更新:2026年05月16日 12:32