アットウィキロゴ

Now or Never

アーティスト MintJam

BPM BASIC ADVANCED EXPERT MASTER Re:MASTER
202 5 7 10 13 14

EXPERT MASTER Re:MASTER
譜面制作者 サファ太 はっぴー Jack

BASIC


ADVANCED


EXPERT


MASTER

(202)
{1},
{16}3/6,,1,8,2,7,3,6,4,5,4,5,3/6,,,,
{8}2<7[8:1],,6,6-2[8:1],,1-5[8:1],,8-4[8:1],
{8},3,3-6[8:1],,8,8<5[8:1]*>3[8:1],,8x,
{8},1,2/6,3,4,1-5[8:1]/5,,1/8h[4:1],
{8},2,2,6,4/5,3,4/5,,
{8}6,6,5,7,1,8,3,3,
{8}4,2,8,1,6,5,6,3,
{8}4,2/5,6,4/7,8,1,2/4,3,
{8}6,2/7,8,1/8,2x/7x,3x/6x,,,
{8}4,,4/7,,4/5,,4/8,8-5[8:1],
{8}4,,4,,4/5,6,4/7,8,
{8}4,8,4,6,4,5,4,5h[8:3],
{4}4,4,4/5,4/7-3[8:1],
{8}4/7,,4/8,8,4,7,4,6,
{8}4,5,4,5,4,6<3[8:5],4,,
{4}4,4,4,4,
{8}E2,E7,E4,E8,E3,E6,B1/B8,,
{8}3,3,4,2,8,1>4[8:1]/8<5[8:1],,1x/8x,
{8},3/6,3/6,,7-2[8:1],,3-6[8:1],,
{8}8,,1/8,1/8,,4-8[8:1],5,3h[4:1],
{8},7,7,6,8,1,8-4[8:1],,
{8}3h[4:1],,6,6>3[8:1],,2<7[8:1],,5,
{8}5,,1,1>4[8:1],,5>6[2:1],,1x,
{8},,,,,,1/8,1/8,
{8},2/4,,5/7,,1/8,1/8,,
{8}6,5,4,3,,1,1>4[8:1]/8,,
{8}5,,8<5[8:1],,4,4h[4:5],,B4/E4,
{8},B1/E2,,B5/E6,,B8/E8,,C1,
{8},,1/8,,5/7,5>1[8:1]/6,,8h[4:1],
{8},,1/8,,2/4,3/4<8[8:1],,1h[4:1],
{8},,1/8,,4/5,4>5[8:5]/5,,8x,
{8},,,,,,3/6,3/6,
{8},7,4,5-8[8:1],,1,1,,
{16}2/5,,3,4,2,,4/7,,6,5,7,,1/8,,1/8,,
{8},2/7,4/5,3h[8:3]/6h[8:1],,,,,
{8}8,4,6,2-5[8:1]/6-1[8:1],,2/6,,3-8[8:1]/7-4[8:1],
{8},3/7,,2/6,,3b/7b,8,1,
{8}1,5,3,3-8[8:1]/7-4[8:1],,3/7,,2-5[8:1]/6-1[8:1],
{8},2/6,,3/7,,2b/6b,,,
{8}8,4,6,2-5[8:1]/6-1[8:1],,2/6,,3-8[32:5]/7-4[32:5],
{8},3/7,,1-4[8:1]/5-8[8:1],,1<2[8:3]/5,,,
{8},,8h[4:1],,1,1-5[8:1],,1/7-3[8:1],
{8},4-1[8:1]/7,,4/8,,2/7,2/7,,
{8}1,5,3,3-8[8:1]/7-4[8:1],,3/7,,2-5[8:1]/6-1[8:1],
{8},2/6,,3/7,,2b/6b,1,8,
{8}8,4,6,2-5[8:1]/6-1[8:1],,2/6,,3-8[8:1]/7-4[8:1],
{8},3/7,,2/6,,3b/7b,,,
{8}1,5,3,3-8[8:1]/7-4[8:1],,3/7,,2-5[8:1]/6-1[8:1],
{8},2/6,,4-1[8:1]/8-5[8:1],,4/8>7[8:3],,,
{4},1h[4:1],8<5[8:1],1>4[8:1]/8,
{8}1/8,,3/6,3/6,,1/8,3/6,,
{8}2-6[8:1]/7h[2:1],,2,,5,5>8[4:1],,8,
{8},,3h[4:1]/5,,8,8<3[4:1],,2,
{8},,1/8,,7-3[8:1],3-7[8:1],2x,2x,
{8},1,1/8,,6,5,7,1,
{8}8<5[8:1],,1,1>4[8:1],,5-1[8:1],,3-7[8:1],
{8},8-5[8:1],,4-1[8:1],,8,,2/7,
{8}6,5,7,3,4,2,6,5,
{16}8,,3,,4,,1,1,8,,3/6,,,,,,
{16}4/7,,4>1[8:1]/7,,,,7,6,5,,,,5,,5,,
{8}1,8,3,3,5,4,6,3,
{16}2/5,,2/5<8[8:1],,,,2,3,4,,,,4,,4,,
{8}8,1,6,6,4,5,2,,
{16}E3,B3,B4,E5,E7,B7,B8,E1,2,,2>5[8:1],,6,,7h[4:1],,
{8},8,8,1,7,3,5,4h[4:1],
{8},5,5-7[8:1],,4-2[8:1],,8,8,
{8},1,1-5[8:1],,1/7-4[8:1],,1/7,,
{8}2>5[8:1]/8,,B6/E7,,1/7<4[8:1],1,B3/E3,,
{8}2>5[8:1]/8,,B6/E7,,1,1,8,8,
{8}1/7<4[8:1],,E3/B3,,2>5[8:1]/8,8,B6/E7,,
{8}1/7<4[8:1],,B3/E3,,8,8,1,1,
{16}E2,B2,B3,E4,E8,B7,B6,E6,1,2,3,4,8,7,6,5,
{32}E1,E2,E3,E4,E5,E6,E7,E8,E1,E2,E3,E4,E5,E6,E7,E8,E1,,,,,,,,3x/6x,,,,,,,,
{8}2-5[8:1],8,8,7-4[8:1],1,1,2-6[8:1],8,
{8}8,7-3[8:1],1,1,2h[2:1],,E1,,
{8}4<7[8:1],,3,,1,1,8,8,
{8}5>2[8:1]/7,,6,,8,8,1,1,
{8}2/4-8[8:1],,3,3-6[8:1],,7>5[8:5],,1x,
{4},,,4/5,
{8}3/7,,1/2,1-6[8:1]/2-5[8:1],,1/2,,4,
{8}4/5,,7/8,7-4[8:1]/8-3[8:1],,7/8,,5,
{8}4/5,,3,2/4,,6,5/7,,
{8}1,2/4,,8,5-1[8:1]/7,,1x/5<4[2:1],,
{8}4x,,,,,,3/4,2/5,
{8},5/6,4/7,,1/8,,4/5,,
{8}3,4,2,6,5,7,1,1,
{4}8-4[8:1],1-5[8:1],8<5[8:1],1>4[8:1],
{1}C1f,
{1},
{8}1/8,1>4[8:1]/8,,1/5<8[8:1],,1/5,,1b/2b,
{8},3b/4b,,5b/6b,,7b/8b,,,
{16}1,,5,,3,,3v8[8:1]/7v4[8:1],,,,3/7,C1,,,2v5[8:1]/6v1[8:1],,
{16},,2/6,C1,,,3-6[8:1]/7-2[8:1],,,,3/7>6[8:3],,,,,,
{8},,1h[4:1],,8,8-4[8:1],,2-6[8:1]/8,
{8},2/5-8[8:1],,1/5,,2/7,2/7,,
{16}8,,4,,6,,2v5[8:1]/6v1[8:1],,,,2/6,C1,,,3v8[8:1]/7v4[8:1],,
{16},,3/7,C1,,,2/6,,,,3b/7b,,8,,1,,
{16}1,,5,,3,,3v8[8:1]/7v4[8:1],,,,3/7,C1,,,2v5[8:1]/6v1[8:1],,
{16},,2/6,C1,,,3/7,,,,2b/6b,,,,,,
{16}8,,4,,6,,2v5[8:1]/6v1[8:1],,,,2/6,C1,,,3v8[8:1]/7v4[8:1],,
{16},,3/7,C1,,,2-7[8:1]/6-3[8:1],,,,2<3[8:3]/6,,,,,,
{4},8h[4:1],1>4[8:1],1/8<5[8:1],
{8}1/8,,3/6,3/6,,1/8,3/6,,
{32}2h[2:1]/7-3[8:1],,,,,,,,7,,,,,,,,4,,,,4>1[8:1]*<7[8:1],,,,,,,,4,E4/E5,E3/E6,E2/E7,
{32},,,,,,,,4/6h[4:1],,,,,,,,1,,,,1<6[8:1]*>4[8:1],,,,,,,,1,E1/E2,E3/E8,E4/E7,
{8},,1/8,,2-6[8:1],6-2[8:1],7x,7x,
{8},8,1/8,,3,4,2,8,
{8}1>4[8:1],,8,8<5[8:1],,4-8[8:1],,6-2[8:1],
{8},1-4[8:1],,5-8[8:1],,1,,2/7,
{8}3,4,2,6,5,7,3,4,
{16}1,,6,,5,,8,8,1,,2/7,,2/7,,,,
{8}6-1[8:1],4,4,3-8[8:1],5,5,6<1[8:1],4,
{32}4,,,,3>8[8:1],,,,5,,,,5,,,,6-1[32:5],,,,2-6[8:1],,,,6x,E7,B7,B8,2x,B2,C1f,B6,
{1},
{1},
{1},
E

Re:MASTER

(202)
{1},
{16}4x/5x,,1,8,2,7,3,6,4,5,4,5,3x/6x,,,,
{8}4/8-4[8:1],,2,2<7[8:1],,5pp4[8:3],,4,
{8},,2-8[8:1],,6,6pp4[8:3],,4,
{8},,3-8[8:1],,7,7p2[4:1],,2,
{16},,,,1/8,,3,3,4,,6,6,5,,,,
{8}2,1,3/8,,7,8,1/6,1/6,
{8},4/8,4/8,,1>4[8:1]/5<8[8:1],1/5,,,
{8}5-1[8:1],6,5,7-3[8:1],8,7,2-6[8:1],1,
{8}2,4-8[8:1],3,4,2,2b/6b,,,
{8}4,4,3/5,,6,5/7,,2/4,
{8},7,6>3[8:1]/8,,2h[4:1],,1,,
{8}7,7,6/8,,2,1/3<6[8:1],,7h[4:1],
{8},8,1,2,3-8[8:1]/5,,3/7-4[8:1],,
{8}1h[4:1]/7,,3,4,5,6,7,2/8h[4:1],
{8},6,5,4,3/6,5,4,3h[2:1],
{8},4,4,4,4/5,,6,5,
{8}4/7,3,4,2/5,1,8,2b/7b,,
{8}5,5,4x/6x,6-4[8:1],,2-6[8:1],,2x/8xh[4:1],
{8},1,1x/7x,,8<5[8:1],1,2x/8x,,
{8}4,4,3x/5x,3-5[8:1],,7-3[8:1],,1xh[4:1]/7x,
{8},8,2x/8x,3,4,5,2x-6[8:1]/6x,7,
{8}8,,3x/7x,6,5,4,3,2x/6x,
{8},1/8,2x/7x,3,4,5,3x/6x,2-4[8:1]/7-5[8:1],
{8},2/7,,1/8,2h[4:1]/7h[4:1],,,2/7-3[8:1],
{16},,4-2[8:1]/7,,,,4/8-6[8:1],,,,1b/8,,,,3,3,
{8}4,2h[8:13]/5,5,,,,5,,
{8},,5,,,,5,3-5[8:1]/4,
{8},3,6h[1:1],,,,5,,
{16},,,,5,,3,3,4,,2/5pp5[4:1],,,,1h[8:3],,
{8},,4,5,6,4qq4[4:1]/7,,8h[8:3],
{8},,5,4/7,3/6,2/5-8[8:1],,1h[1:2],
{8},7,6,5,4,3,2,8-3[8:1],
{8},8,,4-7[8:1],,4,,8,
{16}2/7,,3,4,2,,4/5,,6,5,7,,4/5,,1,8,
{8}1,2<4[8:3]/7-3[8:1],3/6,2b/7b,,,,,
{8}4x/8-4[8:1],,2,2-5[8:1],,2/6-1[8:1],,3-8[8:1]/6,
{8},3/7-4[8:1],,1-5[8:1]/7,,1x/8b,,,
{8}3/7>2[8:1],,5,5-1[8:1],,8h[4:1],,2,
{8},3p7[8:1]/7p3[8:1],,3<6[8:1]/7>2[8:1],,,,,
{8}1b/8b,,3/6,3-7[8:1]/6-4[8:1],,3/6,,2x-6[8:1]/7x-1[8:1],
{32},,,,2/7,,,,,,,,1x/8x-4[8:1],,,,,,,,4>5[4:1]/8,,,,,,,,C1f,E4,E3,E2,
{32}E1,E8,E7,E6,,,,,1x/8x,,,,,,,,3/4,,,,2>6[4:1]/5,,,,,,,,6<2[4:1],,,,
{8},2>4[8:1],,5,,2b/7b,,,
{8}1-5[8:1]/5,,7,7-4[8:1],,3-8[8:1]/7,,3/6-1[8:1],
{8},2-5[8:1]/6,,2/8-4[8:1],,1b/8x,,,
{8}2h[4:1]/6,,4,4-8[8:1],,2-4[8:1]/4,,2/5-7[8:1],
{8},1-5[8:1]/5,,1<6[8:1]/8>3[8:1],,1/8,,,
{8}4b/5b,,3/6,3-5[8:1]/6-2[8:1],,3/6,,2x-8[8:1]/7x-3[8:1],
{8},2/7,,1x>4[8:1]/8x<5[8:1],,1pp4[2:1]/8qq5[2:1],,1b/8b,
{4},C1f,E3/E7,E1/E5,
{16}2h[4:1]/7h[4:1],,,,,,3/6,,4,5,4,,2b/7b,,,,
{8}3h[4:1]/6,,4-1[8:1],5-8[8:1],4x,5x,,3/7,
{8},,2/6h[4:1],,8<5[8:1],1>4[8:1],8,1,
{8},,2V48[4:1]/7V51[4:1],,2x/7x,C1f,,3b/6b,
{8},,,,3/4,2,1/8,7,
{8}5/6,,3/4,3-7[8:1]/4,,4-8[8:1],,5-1[8:1],
{8},6-2[8:1],,7>2[8:1],,5,,1/8,
{8}2/7,3,4,2/5,6,5,4/7,8,
{16}1,,2/7,,3/6,,4,4,5,,2b/7b,,,,,,
{8}3/4,2/4,,5/6,5/7,,1/8,1h[4:1]/8,
{8},4,2,3,4,3,5,7h[4:1],
{8},5,7,6,5,6,4,3h[4:1],
{8},4,2,3,4,3,4/5,,
{16}6,5,6,,3,4,3,,7,,6,,5,,4h[4:1],,
{8},5,4,3,6,5,4,3/6h[4:1],
{8},5,4,3,5,4,3,2h[4:1]/6,
{8},3,4,5,6,7,8,1,
{8}2/8h[2:1],3,4,,4,3<6[8:1],1,3,
{8},7p3[8:1],8,7,,2<7[8:1],3,2,
{8},6h[8:3],5,4,2h[8:3],3,4,6h[4:1],
{8},4qq1[8:3],6,8,7,6,5b,,
{16}2,3,4,5,8,7,6,5,E1,E2,E3,E4,E8,E7,E6,E5,
{32}1,2,3,4,5,6,7,8,1,2,3,4,5,6,7,8,1b,,,,,,,,4,,5,,4,,5,,
{8}3-1[8:1],,3,7-5[8:1],,7,2-6[8:1],,
{8}2,8h[8:3],,,6,5,4>5[2:7],3,
{1}C1xh[2:7],
{1},
{1},
{4},,,4/5,
{8}3/4-1[8:1],,2,2h[2:1],,,,1,
{8}7/8-5[8:1],,6,6h[8:3],,,3,,
{8}4b/5b,,3,1b/4,,6,5/8b,,
{8}3/4,1b/5,,5/6,4/8b,,4/5,,
{16}1b,8,1,8,1,8,1b,8,1,8,1,8,1b,8,1,8,
{16}1,8,1b,8,1,8,1,8,1b,8,1,8,1b,,,,
{8}5h[4:1]/7,7,7,2/4h[4:1],2,2,1h[4:1]/8,8,
{12}8-4[8:1],,,1/8,,,2,3,4,5,6,7,
{1}1b-5[3.4158415841584144##0.14851485148514598]/8h[8:23],
{1},
{8},,,,,,,1b<6[8:1],
{48},,,,,,1b>4[8:1],,,,,,,,,,,,1bw5[8:1],,,,,,,,,,,,,B1,C1f,B5,,,,,,,,,,,,,,,
{8}3/7-3[8:1],,1,1>7[8:3],,5<3[8:3],,1>7[8:3],
{8},5<3[8:3],,1>7[8:3],,5<4[16:7],,1b,
{8},,5x,,3/7,3-8[8:1]/7-4[8:1],,3/7,
{8},2-5[8:1]/6-1[8:1],,2/6,,3b/7b,,,
{8}1-5[8:1]/5,,7,7-4[8:1],,3-8[8:1]/7,,3/6-1[8:1],
{8},2-5[8:1]/6,,2/8-4[8:1],,1b/8x,,,
{8}5-1[8:1]/6,,7,7-5[8:1],,7/8-4[8:1],,1-5[8:1]/8,
{8},1/2-4[8:1],,2/6<3[4:1],,3x/6x,,,
{8}1b/8b,,3/6,3-7[8:1]/6-4[8:1],,3b/6b,,2x-6[8:1]/7x-1[8:1],
{8},2b/7b,,1x>4[8:1]/8x<5[8:1],,1b/8b,,2/7,
{4}2/7>2[8:1],4-1[8:1]/7,4/5-8[8:1],4>5[2:1]/5,
{48}C1hf[4:3],,,,,,,,,,,,,,,,,,,,,,,,,,,,,,,,,,,,6b,7b,8b,1b,2b,3b,,,,,,,
{8},,4x/5x,,3/7,3pp3[4:1]/7pp7[4:1],,3x/7x,
{8},,1/8,,2/6,2qq2[4:1]/6qq6[4:1],,2x/6x,
{32},,,,,,,,4/5,,,,,,,,1/8,,,,2-6[8:1]/7-3[8:1],,,,,,,,2b/7b,C1f,,,
{8},,,,5/6,7,1/8,2,
{8}3/4,,5/6,5/6-2[8:1],,5-1[8:1],,4-8[8:1],
{8},3-7[8:1],,2<7[8:1],,4h[4:1],,5,
{8}1/2,3/8,4/7,1/8,2/7,3/6,7/8,1/6,
{16}2/5,,1/8,,2/7,,3/6,,5,5,4,,2/7,,2-6[8:1]/7,,
{16},,8,,8,,8,,2/6,,4,4,5,,3/7,,
{16}5,5,4,,2/6,,4,4,6b-8[8:1],,8b-4[8:1],,4b-2[8:1],,1b,,
{1},
{1},
{1},
E

名前:
コメント:

タグ:

+ タグ編集
  • タグ:
最終更新:2026年03月25日 18:29