BASIC
ADVANCED
EXPERT
MASTER
(95.5)
{1},
{16},,,,,,,,,,,,6,5,4,3,
{1}2h[4:3]/7h[4:7],
{1}5h[4:7],
{1}4h[4:5],
{16}3<6[4:1],,,,,,,,8b,,,,1,2,3,4,
{4}5>2[4:1]/6,7,4<7[4:1],2,
{8}4>2[4:1],,2<7[4:1],,7<5[4:1],,4,4,
{12}4h[1392:539],,,(87)2h[8:3],,,6h[2392:2309],,,(78)8,1,2,
{4}3h[23:9],(69),4>5[0.8695652173913047##1.5788446526151425]/5p2[0.8695652173913047##1.5788446526151425],(61),
(63){16},,,,(191),,,,4/5h[4:1],,6,7,8,1,2,3,
{16}4/7,,6-1[8:1],5,6,,2-7[8:1],,,,4-8[8:1],,,,1-5[8:1],,
{8},6-3[8:1],,2,,4/8,7,6,
{16}2/5,,3-8[8:1],4,3,,7-2[8:1],,,,5-1[8:1],,,,8-4[8:1],,
{8},3-6[8:1],,7-4[8:1],,2<7[4:1],,6h[4:1],
{8},,,4,4h[8:3],3,2,1<6[4:1],
{8},6>3[4:1],,3,,2,2,,
{8}1h[4:1]/3h[4:1],,,6/8,,5qq8[8:3]/7,4,3/5,
{16},,,,1b,,,,4h[4:1]/5,,3,2,1,8,7,6,
{16}2/5,,3-8[8:1],4,3,,7-2[8:1],,,,5-1[8:1],,,,8-4[8:1],,
{8},3-6[8:1],,7,,1/5,2,3,
{16}4/7,,6-1[8:1],5,6,,2-7[8:1],,,,4-8[8:1],,,,1-5[8:1],,
{16},,6-3[8:1],,,,2,,,,1/7,,,,2/8,3/7,
{8}4/6qq7[8:3],,8,,1,1,2,3pp2[8:3],
{8},1,1,,8,8,7,6<3[16:5],
{16},,4,,4,,4,,4,5,3,6,2,7,1,8,
{16}2,3,4,5,1,2,3,4,1-6[8:1]/5-2[8:1],2/6,3/7,4/8,,,,,
{8},,4b/8b,,6,6,5,7h[4:1],
{8},5h[4:1],,3<6[16:3],,2,2,,
{8}4,,2/5,,3,3,4,2h[4:1],
{16},,4,,4h[4:1],,,,3,5,3,5,4,6,4,6,
{8}5-1[8:1],,4b/5b,,2,3,8,7,
{16}2,5,3,4,2,5,3,4,2,5,3,4,2,5,1,6,
{8}2h[4:1],1,1h[4:1],3,3h[4:1],4,4h[4:1],8,
{16}8-4[8:1],,7,1,8,,,,1,2,5,6,2-6[8:1],3,6,7,
{8},,4b/8b,,3,3,4,2h[4:1],
{8},4h[4:1],,6>3[16:3],,7,7,,
{8}5,,4/7,,6,6,5,7h[4:1],
{16},,5,,5h[4:1],,,,6,4,6,4,5,3,5,3,
{8}4-8[8:1],,4b/5b,,7,6,1,2,
{16}7,4,6,5,7,4,6,5,7,4,6,5,7,4,8,3,
{16}7h[4:1],,8,,8h[4:1],,6,,6h[4:1],,1,,1,8,2,7,
{48}1,,,8,,,2,,,7,,,1,,,8,,,2,,,7,,,1,,2,,3,,4,,6,,7,,8,,1,,5,,4,,3,,2,,
{8}1w5[8:1],,1b,,,5,4,3,
{16}2h[8:1],,4,3h[8:1],,5,4h[8:1],,6,5h[8:1],,7,5,6,5,6,
{8}5qq2[2:1],,8,,,7,8,,
{4}7<3[4:1],1,2h[4:1],3h[4:1],
{8}4>1[4:1],,,7<4[4:1],,,8h[4:1],,
{8}5<8[4:1],,,2>5[4:1],,,8s4[8:3]*z4[8:3],,
{16}8,,,,,,,,,,,,6,2,5,3,
{16}4h[4:1],,,,1,2,3,4,1,8,7,6,1,2,3,4,
{8}5w1[8:1],,5b,,,4,5,6,
{16}7h[8:1],,5,6h[8:1],,4,5h[8:1],,3,4h[8:1],,2,4,3,4,3,
{16}2/5,,,,3,4,3,4,2,5,2,5,1,6,1,6,
{16}7/8,,,,2,1,2,1,3,8,3,8,4,7,4,7,
{16}5/6,,,,4/5,,4,,4,,4,,4,,4,5,
{16}6,,6,,6,,6,7,8,,8,,8,,8,1,
{16}2,,2,3,4/6,7,8,1,2,3,4,5,3-8[8:1]/6-1[8:1],,,,
{32},,,,,,,,2b/7b,3,4,5,6,7,8,1,2-6[32:3],3,4,5,6,7,8,1,2,,,,,,,,
{4}4/5,5,6,6,
{6}5h[4:1]/6h[4:1],,,5/6,4/5,3/4,
{4}2/5,3,3,2,
{16}2h[8:7],,,,4,,,,3b,,,5b,,,7b,,
{4}4/8,4,3,3,
{6}3h[4:1]/4h[4:1],,,2/4,3/5,4/6,
{8}5qq2[2:1]/7,,7,7,8,8,1qq6[2:1],1,
{16}2,,2,,3,,3,,4b,,,3b/7b,,,2b/6b,,
{8}2b/6b,,3/5,,2/4,2h[8:1]/4h[8:1],,5h[4:1]/7h[4:1],
{16},,,,3,4,2,6,5,7,3,4,1,6,5,8,
{48}2,,,4,,,2,,,4,,,2,,,,,,7,,,5,,,7,,,5,,,7,,,,,,2,,3,,4,,8,,7,,6,,
{16}1h[4:1]/5,,,,3,4,5,6,2,3,4,5,1,2,3,4,
{8}1/5,1/5,2/6,2/6,3/7,3/7,4/8,4/8,
{8}1/5,4/8,3/7,2/6,1/5,2/4,3/5,4/6,
{32}5/7,,,,2,3,4,5,6,,,,7,6,5,4,3,,,,1,2,3,4,5,,,,8,7,6,5,
{48}3/4,,,,,,,,,,,,1,,,8,,,2,,,7,,,3,,,6,,,4,,,5,,,3,,2,,1h[12:5],,6,,7,,8h[24:7],,
{4},,1s5[16:1]/8z4[16:1],1b/8b,
{16}2/7,,6-1[8:1],5,7,,2-7[8:1]/6,,,,2/4-8[8:1],,,,1-5[8:1]/4,,
{16},,1/6-3[8:1],,,,2/6,,,,4/7,,8,7,6,5,
{16}2/4,,3-8[8:1],4,2,,3/7-2[8:1],,,,5-1[8:1]/7,,,,5/8-4[8:1],,
{8},3-6[8:1]/8,,3/7-4[8:1],,3>6[4:1]/7,,3/5h[4:1],
{16},,,,,,5,4,5h[8:3],,6,,7,,8>3[4:1],,
{8},3q4[8:3],,5,,5,6,7,
{8}6h[4:1]/8h[4:1],,,1/3,,2/4pp1[8:3],5,4/6,
{16},,,,8b,,,,4h[4:1]/5,,3,2,1,8,7,6,
{16}2/5,,3-8[8:1],4,2,,3/7-2[8:1],,,,5-1[8:1]/7,,,,5/8-4[8:1],,
{16},,3-6[8:1]/8,,,,3/7,,,,2/5,,1,2,3,4,
{16}5/7,,6-1[8:1],5,7,,2-7[8:1]/6,,,,2/4-8[8:1],,,,1-5[8:1]/4,,
{16},,1/6-3[8:1],,,,2/6,,,,1/7,,,,2/8,3/7,
{8}4/6pp5[8:3],,8,,3,3,2,1pp8[8:3],
{8},7,7,,4,4,5,6<3[16:5],
{16},,4,,4,,4,,4,5,3,6,2,7,1,8,
{16}2,3,4,5,1,2,3,4,1-6[8:1]/5-2[8:1],2/6,3/7,4/8,,,,,
{16}3b/7b,,6-2[8:1],5,7,,5-8[8:1]/6,,,,4-1[8:1]/5,,,,3-7[8:1]/4,,
{16},,3/5-1[8:1],,,,5/8-4[8:1],,,,3b/8b,,1,2,3,4,
{16}5/6,,3-7[8:1],4,2,,3/4-1[8:1],,,,4/5-8[8:1],,,,5/6-2[8:1],,
{8},4-8[8:1]/6,,1-5[8:1]/4,,1b/6b<4[4:1],,2h[4:1]/6b,
{16},,,,,,1,8,1h[8:3],,2,,3,,4<7[4:1],,
{8},7q8[8:3],,2,,1,1,,
{32}1b/8b,2/7,3/6,4h[32:5]/5h[32:5],,,,,,,,,1b/8b,2/7,3/6,4h[32:9]/5h[32:9],,,,,,,,,,,,,1b/8b,2/7,3/6,4qq1[32:9]/5pp8[32:9],
{16},,,,,,,,,,,,3,6,2,7,
{16}1b/8b,,,,3,4,3,2,3,4,3,2,3,4,3,2,
{16}3,4,3,2,3,4,3,2,3,4,3,2,3,4,5,6,
{16}7/8,,6,5,6,7,6,5,6,7,6,5,6,7,6b-1[8:1],,
{16},,4b-7[8:1]/6b,,,,4b/5b-1[8:1],,,,3b/5b,,,,2/8,3/7,
{8}4/6pp5[8:3],,8,,3,3,2,1pp8[8:3],
{8},7,7,,4,4,5,6<3[4:1],
{16},,4,,4,,4,,4,5,3,6,2,7,1,8,
{16}2,3,4,5,1,2,3,4,1qq6[16:5]/5qq2[16:5],2/6,3/7,4/8,,,,,
{4},3h[1:2]/7h[1:2],,,
{1},
{1},
{1},
{1},
E
Re:MASTER
- MASTER譜面のBPMを跨ぐHOLDの終点の修正を行いました。 -- けもがみ (2026-04-13 23:39:45)
最終更新:2026年04月15日 19:27