アットウィキロゴ

パラマウント☆ショータイム!!

アーティスト 翡乃イスカ

BPM BASIC ADVANCED EXPERT MASTER Re:MASTER
222 5 8 11+ 14 -

EXPERT MASTER Re:MASTER
譜面制作者 翠楼屋 隅田川星人 -

BASIC


ADVANCED


EXPERT


MASTER

(222)
{1},
{1},
{1},
{8}4/6,6,6,,3/5,3,3,,
{8}6,5,4,3,6,5,3,,
{8}4/6,6,6,,3/5,3,3,,
{8}6,5,4,3,2x,,,,
{8}4/6,6,5x,,3/5,3,4x,,
{8}6,5,4,3,4xh[8:1]/5xh[8:1],,3/6,,
{16}7,5,7,5,7,,2,4,2,4,2,,3/6,,3/6,,
{16},,6,5,7,,3,4,2,,8,,8,,,,
{8}5/7,7,7/8,,2/4,2,1/2,,
{8}E8,B5/E6,E2,B4/E4,B6/E7,B3/E3,E5,,
{8}2x/4x,2,1/2,,5/7,7,7/8,,
{16}B1,B2,B3,B4,B5,B6,B7,B8,C1f,,,,,,,,
(222){8}1xh[4:1],,,2h[4:1]/5h[4:1],,,4h[4:1]/7h[4:1],,
{16},,2h[4:1]/6h[4:1],,,,,,2/6,,,3/7,,,4/8,,
{16},1/5,,,2/6,,,3/7,,,4/8,,,1/5,,,
{1}C1xh[4:5]/2,
{4},8b<5[16:3]*>3[16:3],,,
{8}2/5,3/6,4/7,5/8,,4/7,3/6,2/5,
{8},1/4,2/5,3/6,4/7,,1b/8b,,
(222){8}6,,5h[4:1]/7,,6,4h[4:1]/6,,5,
{8}3h[4:1]/5,,4,2/4-6[8:1],,1,1,,
{8}3,,2/4h[4:1],,3,3/5h[4:1],,4,
{8}4/6h[4:1],,5,5/7,,4/8,4/8,,
{8}6,,5h[4:1]/7,,6,4h[4:1]/6,,5,
{8}3h[4:1]/5,,4,2/4v5[16:3],,1,1,,
{8}2,,2/4h[4:1],,3,3/5h[4:1],,4,
{16}6,,6,,3,,3,,5,4,5,4,5,,,,
(222){24}3x,2x,1x,,,,4x,3x,2x,,,,3x,2x,1x,,,,4x,3x,2x,,,,
{24}3x,2x,1x,,,,4x,3x,2x,,,,3x,2x,1x,,,,5pp6[4:1],,,,,,
{4}2,4qq3[4:1],7,5,
{8}7,8,1,2,3,4,5qq2[4:3],6,
{4}7b,,8,1,
{8}3,3,4,4,5,5,6,6,
{16}2/7,,2/7,,2/7,,2/7,,1,8,1,8,1,,,,
{8}3x/6x,3x/6x,3x/6x,3x/6x,C1f/B2/B3/E3/B4/B5/E5/B6/B7/E7,,,,
(222){8}1xh[8:1]/8xh[8:1],,E2/E8,,6,6h[8:7],,E3,
{8},C1,,7,7h[4:1],,8,8h[4:1],
{8},1,,,2h[8:1]/4h[8:1],,2/4,,
{32}5h[8:1]/7h[8:1],,,,,,,,5>2[8:1]/7,,,,,,,,,E7,E6,E5,,,,,,,,,,,,,
{8}1h[8:1]/8h[8:1],,E2/E8,,3,3h[8:7],,E7,
{8},C1,,2,2h[4:1],,1,1h[4:1],
{8},8,,,6h[8:1]/7h[8:1],,6/7,,
{32}2h[8:1]/3h[8:1],,,,,,,,2-7[8:1]/3-6[8:1],,,,,,,,E3,C1,E7,,,,,,,,,,,,,,
{8}1xh[8:1]/8xh[8:1],,E2/E8,,6,6h[4:3],,E7,
{8},E5,,3,3h[4:1],,1,1h[4:1],
{8},7,7h[4:1],,5,,3/4,2/5,
{8},5/6,4/7,,1/8,1/8,,C1f/B3/E3/E4/B6/E6/E7,
(222){1},
{4}E7,E6,E5,E4,
{8}2h[4:1],4,4,7h[4:1],5,5,2h[4:1],4,
{8}4,7h[4:1],5,5,2h[4:1],4,4,3/5,
{8},2,1,8,7,6,5-1[8:1],4,
(222){8}3x/5x,,,2/8,3-7[8:1],7>5[8:3],3,5b,
{8},,,7,7-4[8:1],4-8[8:1],2,2,
{16},,1,2,3h[8:1],,7,6,5h[8:1],,1,8,7-3[8:1],6,5,4,
{8}3x/7x,,,1,1-5[8:1],5-2[8:1],8,7,
{8}7-4[8:1],,1-6[8:1]/7,,1/8-4[8:1],,3/8,2bpp5[8:5],
{8},3,4,5,6,7,8,1,
{8},7<4[8:1],8,7,,2q6[8:1],1,2,
{8},8,8,2-8[8:1],7-5[8:1],2V48[4:1],7,2b,
{8},,,1,6-2[8:1],2<4[8:3],6,4b,
{8},,,2,2-5[8:1],5-1[8:1],7,7,
{16},,8,7,6h[8:1],,2,3,4h[8:1],,8,1,2-6[8:1],3,4,5,
{8}2x/6x,,,8,8-4[8:1],4-7[8:1],1,2,
{8}2-5[8:1],,2/8-3[8:1],,1-5[8:1]/8,,1/6,7bqq4[8:5],
{8},6,5,4,3,2,1,8,
{8},2>5[8:1],1,2,,7p3[8:1],8,7,
{8},2x,1/2,3/8,4/7,,2/5,2/5,
{8},1/8,1-4[8:1]/8-5[8:1],2/7,1b/8b,,3x/6x,,
(222){8}7,,4/6,,3,3,2/4,,
{8}6,6,5/7,,4/6,,3/7<8[8:5],,
{1}C1f,
{4}5/7,2/4-1[8:1],4b/5b,,
{4}B2/5xh[8:1],B3/6xh[8:1],B4/7xh[8:1],B5/8xh[8:1],
{4}B6/1xh[8:1],B7/2xh[8:1],B8/3xh[8:1],C1hf[4:5]/4x,
{8}E5,E4,E3,E2,E1,E8,E7,E6,
{4}E5,1x/8x,2xh[8:1]/6xh[8:1],4b/8b,
(222){8}3/5,,2/6h[4:1],,3,3/6h[4:1],,4,
{8}4/6h[4:1],,5,5v4[16:3]/6,,7,7,,
{8}8,,3h[4:1]/7,,6,3h[4:1]/6,,5,
{8}3h[4:1]/5,,4,3/4,,2/6,2/6,,
{8}5,1x-3[8:1],5,1x,5,1x-7[8:1],5,1x,
{8}5,1x-3[8:1],5,1x,5,1x-7[8:1],5,1x,
{8}6,6h[4:1],8,8h[4:1],2,2h[4:1],4,4h[8:1],
{1}5bpp8[2:1]*qq2[2:1],
(222){8}6v5[4:1],,5-3[8:1],,2,2,,3v4[4:1],
{8},4-6[8:1],,7,7,,,,
{8}7v6[4:1],,6-4[8:1],,3,3,,2v3[4:1],
{8},3-5[8:1],,6,6,,5/7,,
{16}5h[8:1]/7h[8:1],,,4h[8:1]/6h[8:1],,,3h[8:1]/5h[8:1],,,2h[8:1]/4h[8:1],,,1/5,,,,
{16}2h[8:1]/4h[8:1],,,3h[8:1]/5h[8:1],,,4h[8:1]/6h[8:1],,,5h[8:1]/7h[8:1],,,4/8,,,,
{24}5/6h[4:1],4x,3x,2x,1x,8x,7x,,,,,,3h[4:1]/4,5x,6x,7x,8x,1x,2x>1[2:1],,,,,,
{1}C1f/B6/B7/2b,
(222){1}1b/8b,
{8}5x/6x,,,4x/5x,,,3x/4x,,
{2}2x/5x,4x/7x,
{8}2x/5x,,,3x/6x,,,4x/7x,,
{8}6,6,5,5,3,3,4,4,
{8}4/5,4/5,4/5,4/5,,E4,E5,E6,
{8},E8,B7,B6,E3,B3,B4,C1xh[8:7],
{4},,,1xw5[8:1],
(222){8}1b,,,7,7<4[8:1],4q8[8:1],2,2,
{16},,1,2,3h[8:1],,1,8,7h[8:1],,3,4,5-1[8:1],6,7,8,
{8}1x/5x,,,2,2-4[8:1],4-8[8:1],7,6,
{8}6-2[8:1],,1-5[8:1]/6,,1/7-4[8:1],,3/7,2bqq5[8:5],
{8},3,4,5,6,7,8,1,
{8},7p3[8:1],8,7,,2>5[8:1],1,2,
{8},6x,5/6,4/7,3/8,,1/6,1/6,
{8},4/5,4-1[8:1]/5-8[8:1],3/6,4b/5b,,2x/7x,,
{8}3,,3/4,,6,6,5/7,,
{8}3,3,2/4,,3/5,,2>1[8:5]/6,,
{1}C1f,
{4}2/4,5-8[8:1]/7,4b/5b,,
{4}B7/4xh[8:1],B6/3xh[8:1],B5/2xh[8:1],B4/1xh[8:1],
{4}B3/8xh[8:1],B2/7xh[8:1],B1/6xh[8:1],C1hf[4:5]/5x,
{8}E5,E6,E7,E8,E1,E2,E3,E4,
{4}E5,1x/8x,2h[8:1]/6h[8:1],3-6[8:1]/7-2[8:1],
{32}3b/7b,C1f,,,,,,,,,,,,,,,,,,,,,,,,,,,,,,,
{1},
{1},
{1},
E

Re:MASTER


名前:
コメント:

タグ:

+ タグ編集
  • タグ:
最終更新:2026年04月12日 09:20