アットウィキロゴ

ピポピポ -People People- feat. ななひら

アーティスト Neko Hacker

BPM BASIC ADVANCED EXPERT MASTER Re:MASTER
230 5 8 11 13+ -

EXPERT MASTER Re:MASTER
譜面制作者 アマリリス ぴちネコ -

BASIC


ADVANCED


EXPERT


MASTER

(230)
{1},
{4},,,{16}4x,3x,2x,1x,
{8}6xb-1[8:1]/8xb,,3,3-5[8:1],,7,7,,3-8[8:1],,6,6-4[8:1],,2,2,,
1,1,4,2h[4:1],,8,1,7,8,8^3[8:1],,6,,5,5,,
6,6,5,7,,2/8,2/8,,3,3,4,2,,1/7,1/7-4[8:1],,
3b,2-5[8:1],,7b,8-4[8:1],,2b,1-5[8:1],,7b,8,
,7-4[8:1]/8-3[8:1],,,,
{4}1xb/5xb,5,4/5,5,3/5,4/5,3/5,4/5,2/5,4/5,2/5,4/5,
1xh[8:3]/5xh[8:3],,{24}D2/D6,D3`D7,D4`D8,,,,{4}4xb/8xb,
3/5,4/5,3/5,4/6,2/5,4/7,2/5,4/8,
{16}3h[16:2]/8h[16:2],,,2h[16:2]/7h[16:2],,,1/6,,,,,,1h[16:2]/2h[16:2],,,1h[16:2]/8h[16:2],,,7z3[4:1]/8,,,,,,{8}E1f,,,,
2h[4:1],,4,4,,3,4,,7h[4:1],,5,5,,6,5,,
2h[4:1],,4,4,,3,2/4,,7h[4:1],,5,5,,6,5/7,,
2^4[4:1],,5,5,,6,6,,7^5[4:1],,4,4,,3,3,,
2h[4:1],,8,8h[4:1],,1,,2-6[8:1]/8-4[8:1],,,,,1x,,1x,,
3h[4:1],,4,2h[4:1],,8,1h[4:1],,6h[4:1],,5,7h[4:1],,1,8h[4:1],,
2h[4:1],,3,1h[4:1],,7,7/8h[4:1],,7h[4:1],,6,8h[4:1],,2,1h[4:1]/2,,
2^5[4:1],,1,1,,8,8,,7^4[4:1],,8,8,,1,1,,
3/7,5b/6b,,2/6,3b/4b,,4/8,5b/6b,,1/5,3b/4b,,7/8,,1/2,,
3>7[2:1]/4h[4:1],,,,B3/C,,,,7<3[2:1]/8h[4:1],,,,B7/C,,,,
1^6[4:1],,6^3[4:1],,3>5[2:1],,7,7h[8:3],,,,,B1/B8/E1,,,,
5>1[2:1]/6h[4:1],,,,B6/C,,,,1<5[2:1]/2h[4:1],,,,B2/C,,,,
8-2v3-5[4:3],,E6,,E7,,E8,,8,8h[4:1],,1b,,3,3,,
4/7,6,6,5/7,6,6,4/7,,2/5,3,3,2/4,3,3,2/5,,
1/6,7,7,6/8,7,7,1/6,,7b/8b,,1b/2b,,3b/4b,,5b/6b,,
7b/8b,,1,1h[8:1],7,7h[8:1],4,4h[8:1],
{16}5,6,7,8,1,2,3,4,5,6,7,8,1,2,3,4,{4}5h[2:1]/Ch[2:1],,,,3x/7x,4x/8x,4x/A8f/E1/E8,,
{8}2bh[8:1],8bh[8:1],2bh[8:1],8bh[8:1],1h[8:1],7h[8:1],5h[8:1],3h[8:1],2bh[8:1],8bh[8:1],2bh[8:1],8bh[8:1],1h[8:1],7h[8:1],5,,
2bh[8:1],8bh[8:1],2bh[8:1],8h[8:1],1h[8:1],7h[8:1],5h[8:1],3h[8:1],1>6[2:1],,6b,,7b,,8b,,
2bh[8:1],8bh[8:1],2bh[8:1],8bh[8:1],1h[8:1],7h[8:1],5h[8:1],3h[8:1],2bh[8:1],8bh[8:1],2bh[8:1],8h[8:1],1h[8:1],7h[8:1],5,,
{32}1b/6bh[4:1],2x,3x,4x,,,,,,,,,3bh[4:1]/8b,7x,6x,5x,,,,,,,,,2b/8bh[4:1],3x,4x,5x,,,,,,,,,1bh[4:1]/7b,6x,5x,4x,,,,,,,,,3/4,,,,,,,,1/8,,,,,,,,
{8}8h[8:1],7h[8:1],6h[8:1],5h[8:1],4bh[4:1],,1,1h[4:1],,2h[8:1],3h[8:1],4h[8:1],5-1[8:1],,,,
8h[8:1],7h[8:1],6h[8:1],5h[8:1],4,,1/5,1/5pp1[2:1],,,4-1[8:1],,{16}4b,A1f,,,{4},
{8}8h[8:1],7h[8:1],6h[8:1],5h[8:1],4h[4:1],,1,1h[4:1],,2h[8:1],3h[8:1],4h[8:1],5-1[8:1],,,,
2bh[4:1]/8bh[4:1],,,5bh[4:1]/6bh[4:1],,,1bh[4:1]/8bh[4:1],,,3b/4b,3b-1[8:1]/4b,,B5/B6/E6,,,,
{1}3xb>3z7b[4:27]/4xb<4s8b[4:27],,,,,,,,
{8}2h[8:1]/4,,2h[8:1]/4,,3h[8:1]/5,,3h[8:1]/5,,4h[8:1]/6,,4h[8:1]/6,,5h[8:1]/7,,6,6,5/7h[8:1],,5/7h[8:1],,4/6h[8:1],,4/6h[8:1],,3/5h[8:1],,3/5h[8:1],,2/4h[8:1],,3,3,
4,2,4,2,5,1,6,8,7,1,6,2,5,3,4-6[8:1],,
{32}4x-2[8:1],,D6f,,,,,,4x^7[8:1],,D3f,,,,,,4x^1[8:1],,A7f,,,,,,4x-8b[8:1],,A1f,,,,,,,,{32}4x/B4,C/B8,A8f,,,,{2},
{8}2b/6b,,4h[4:1]/5h[4:1],,,3,4,2,8,1,6,6h[4:1],8,1,2,2h[4:1],4,
5,6v1[8:1],,3,2,2v5[8:1],,8,,4/8,7,3/6,2,1/8,7,5/6,
4,3/1,,7,7,8,7^5[8:1],,3/7x-3[8:1],,2/7x>5[8:3],,1bh[4:1]/7x2,,,,
,2,2,4,3,5,4,6,5,4/7,,2/5,,3/6,,8b,,
{32}7/A3,D4,A4,,,,,,7/A2,E3,B4,,,,,,7/A1,B1,C,,,,,,7x/8x,,,,,,,,2/A6,D6,A5,,,,,,2/A7,E7,B5,,,,,,2/A8,B8,C,,,,,,1x/2x-5[8:1],,,,,,,,
{8}7b,7-4[8:1],,1b,1,,2b>8[2:1]/7b<1[2:1],,,,,{32},,,,A1/A8,D1f,,,,,,,
{8},,2,2,1,2,8h[4:1],,5h[4:1],,6h[4:1],,1h[4:1],,4h[4:1],,3-8[8:1],,3/7b,,5V71[8:1],,2b/5,,
4>6b[4:1],,{24}4b/E4f,E3,E2,E1,E8,E7,,,,{8},2xb/7xb,,,,
{8}5-8[4:3],,2,,3,,4,,4-1[4:3],,7,,6,,5,,4h[8:3],,,3h[8:3],,,2<5[2:1],,2,,,3,,,4,,
4-1[4:3],,7,,6,,5,,5-8[4:3],,2,,3,,4,,5h[8:3],,,6h[8:3],,,7>4[2:1],,7,,,,B4/B5/C,,,,
2-5[4:1],,5-1[4:1],,1-6[4:1],,6<3[2:1],,5q3[4:1],,,,,,7,,7-4[4:1],,4-8[4:1],,8-3[4:1],,3>6[2:1],,4p6[4:1],,,,,,
2^5[4:1],,5^8[4:1],,8^3[4:1],,3^6[4:1],,6<4[2:1],,8h[2:1],,,,,,
7,,6h[8:5],,,3h[4:1],,,4qq1[2:1]/5pp8[2:1],,4b/5b,,,,,,,,
7bh[8:1],1bh[8:1],7bh[8:1],1bh[8:1],8h[8:1],2h[8:1],4h[8:1],6h[8:1],7bh[8:1],1bh[8:1],7bh[8:1],1bh[8:1],8h[8:1],2h[8:1],4,,
7bh[8:1],1bh[8:1],7bh[8:1],1bh[8:1],8h[8:1],2h[8:1],4h[8:1],6h[8:1],8<4[4:1],,,,A3/B3/D4,,,,
7bh[8:1],1bh[8:1],7bh[8:1],1bh[8:1],8h[8:1],2h[8:1],4h[8:1],6h[8:1],7bh[8:1],1bh[8:1],7bh[8:1],1bh[8:1],8h[8:1],2h[8:1],4,,
{32}3bh[4:1]/8b,7x,6x,5x,,,,,,,,,1b/6bh[4:1],2x,3x,4x,,,,,,,,,1bh[4:1]/7b,6x,5x,4x,,,,,,,,,2b/8bh[4:1],3x,4x,5x,,,,,,,,,4x/8x,,,,,,,,4x/A8f/B8/E1/E8,,,,,,
{16},,,,,,,{24}1xb/7xb,2xb/6xb,3xb/5xb,4xb,,,,,,{8}8,8h[4:1],,1h[8:1],2h[8:1],3h[8:1],4-8[8:1],,,,1h[8:1],2h[8:1],3h[8:1],4h[8:1],5,,
4/8,4qq8[2:1]/8,,,5-8[8:1],,{16}5b,A8f,,,
{8},,1h[8:1],2h[8:1],3h[8:1],4h[8:1],5h[4:1],,8,8h[4:1],,1h[8:1],2h[8:1],3h[8:1],4-8[8:1],,,,
{16}2b,1,2,1,,,7b,8,7,8,,,4b,5,4,5,,,{8}3b/4b,3bp6[8:1]/4bpp6[8:1],,{32}3b/4b,,A6f,,,,,,{4},
{8}2,2,1,3^8[4:1],,7,6,5,4,4-8[8:1],1,4,,3,5,4,
6,6,8,7^4[4:1],,3,2,1,8,8-4[8:1],5,8,,1b/7b,2b/8b,,
3,3,4,2/5-7[8:1],,8b,8b,,6,6,5,4-2[8:1]/7,,1b,1b,,
{32}3/8b,4x,5x,6x,8b,,,,,,,,2b/7,6x,5x,4x,2b,,,,,,,,2/7b,3x,4x,5x,7b,,,,,,,,1b/6,5x,4x,3x,1b,,,,,,,,7-4[8:1]/8-3[8:1],,,,,,,,,,,,,,,,
{8}1xb/5xb,,6-4[8:1],6,3-1[8:1],3,5-8[8:1],5,2-5[8:1],2,7-4[8:1],7,1-4[8:1],1,8^5[8:1],8,2q6[8:1],2,7-3[8:1],7,8,8,4,4,4xh[8:3]/8xh[8:3],,,,{48}D1/D5,A1`A5,D2`D6,A2`A6,D3`D7,A3`A7,,,,,,,{8}2xb/6xb,,
1-5[8:1],1,6-2[8:1],6,8-4[8:1],8,7-3[8:1],7,2,2,4,4,3/5,3/5,3/5,,
{16}2bh[16:2]/6bh[16:2],,,1bh[16:2]/5bh[16:2],,,4bh[16:2]/8bh[16:2],,,,,,1bh[16:2]/5bh[16:2],,,4bh[16:2]/8bh[16:2],,,3b-5-1-7[3:1]/7b-1-5-3[3:1],,,,,,,Cf,
E

Re:MASTER


名前:
コメント:

タグ:

+ タグ編集
  • タグ:
最終更新:2026年04月05日 18:00