BASIC
ADVANCED
EXPERT
(180)
{1},
{4}5,5,5,5,
{4}4,4,4,4,
{4}6,6,6,6,
{4}3,3^6[4:1],{2},
{16}5h[16:3]/7h[16:3],,,,,,{8}48,{4}48,1,
{16}2h[16:3]/4h[16:3],,,,,,{8}15,{4}15,8,
{16}5h[16:3]/7h[16:3],,,,,,{8}48,{4}48,1,
{16}2x/4x,,,5x/7x,,,{8}1x/8x,,E4,{4}E6,
{16}7h[16:3],,,5,,,{8}8,{4}8,12,
{16}3h[16:3],,,4,,,{8}25,{2}2^5[8:1]/5,
{16}7h[16:3],,,5,,,{8}8,{4}8,12,
{16}3h[16:3],,,4,,,{8}56,{4}56,17,
{16}2h[16:3],,,4,,,{8}1,{4}1,78,
{16}6h[16:3],,,5,,,{8}47,{2}4/7^4[8:1],
{16}2h[16:3],,,4,,,{8}1,{4}1,78,
{16}6h[16:3],,,5,,,{8}47,{4}47,1x/8x,
{4}2xh[1:2],4,3,3,
{4}4,4^6[8:1],{2},
{4}7h[1:2],5,6,6,
{4}5,5<1[4:1],{2},
{4}2h[4:7],4,3,3,
{4}4,4<8[4:1],{2},
{1}1xh[4:3]/8xh[4:3],
{16}2x/4x,,,5x/7x,,,{8}4x/5x,{4}4x/5x,1b/6b,
{2}7/8-3[8:1],{8},4,{4}4h[4:3],
{2}2q7[4:1],{4},68,
{16}5h[16:3]/7h[16:3],,,,,,{8}24,{16}2h[16:3]/4h[16:3],,,,,,{8}17,
{16}1h[16:3]/7h[16:3],,,,,,{8}45,{4}45,38,
{2}1-6[8:1]/2,{8},5,{4}5h[4:3],
{2}7p2[4:1],{4},{8},13,
{16}1h[16:3]/3h[16:3],,,,,,{8}46,{16}4h[16:3]/6h[16:3],,,,,,{8}68,
{16}6h[16:3]/8h[16:3],,,,,,{8}45,{4}45,28,
{8}7,7-3[8:1],,1,1-5[8:1],,6,6,
{8},78,{4}7-4[8:1]/8-3[8:1],{2},
{8}2,2-6[8:1],,8,8-4[8:1],,3,3,
{8},12,{4}1-6[8:1]/2-5[8:1],{2},
{8}7,7-3[8:1],,1,1-5[8:1],,6,6,
{8},78,{4}7-4[8:1]/8-3[8:1],{2},
{16}24,,,2h[16:3]/4h[16:3],,,{8},{16}57,,,5h[16:3]/7h[16:3],,,{8},
{1}4b-1[8:1]b/5b-8[8:1]b,
{16}1x/2x,,,38,,,{8}4/7h[8:3],,5,{4}5,
{16}56,,,3h[16:9]/4-8[16:3],,,{8},{2},
{16}38,,,47,,,{8}5-3[8:1]/6-2[8:1],{2},
{1}1s5[8:3]/4h[8:5],
{16}6h[16:3],,,7h[16:3],,,{8}8,,12,{4}12,
{16}4h[16:3],,,5h[16:3],,,{8}6,,78,{4}78,
{2}1/2>6[4:1],{8},8,{4}8,
{16}5x/7x,,,4x/5x,,,{8}2x/4x,,3b/8b,{4},
{16}7x/8x,,,16,,,{8}2h[8:3]/5,,4,{4}4,
{16}34,,,5-1[16:3]/6h[16:9],,,{8},{2},
{16}16,,,25,,,{8}3-7[8:1]/4-6[8:1],{2},
{1}5h[8:5]/8z4[8:3],
{16}3h[16:3],,,2h[16:3],,,{8}1,,78,{4}78,
{16}5h[16:3],,,4h[16:3],,,{8}3,,12,{4}12,
{16}78,,,16,,,{8}2h[8:3]/5,,4,{4}4>6[2:1],
{2},1b,
{16}7h[16:3],,,5h[16:3],,,{8}6,{4}6,28,
{16}3h[16:3],,,5h[16:3],,,{8}4,{4}4,17,
{16}7h[16:3],,,5h[16:3],,,{8}6,{4}6,28,
{16}3h[16:3],,,5h[16:3],,,{8}4,{4}4,17,
{16}6h[16:3],,,5,,,{8}78,{2}7^4[8:1]/8,
{16}3h[16:3],,,4,,,{8}12,{2}1/2^5[8:1],
{16}6h[16:3],,,5,,,{8}78,{2}7^4[8:1]/8,
{16}3h[16:3],,,4,,,{8}12,{4}12,5bx/6bx,
{4}7h[4:5],E7,E4,B1,
{4}B6,B3,1x/8x,46,
{4}2h[4:5],E3,E6,B8,
{4}B3,B6,1x/8x,35,
{2}7^4[4:1]/8,1>5[4:1],
{1}8p5[2:1],
{16}4h[16:3],,,3h[16:3],,,{8}2,{16}5h[16:3],,,6h[16:3],,,{8}7,
{16}4h[16:3],,,3h[16:3],,,{8}2,{2}8b,
{4}5/6h[2:3],5,7,7,
{4}E1,C,{2}E5,
{2}7-4[8:1],2-5[8:1],
{1}6p4[2:1],
{4}3h[2:3]/4,4,2,2,
{4}E1,C,{2}E5,
{2}7-4[8:1]/8-3[8:1],1-6[8:1]/2-5[8:1],
{2}7-4[8:1]/8-3[8:1],{4}1x/2x,3x/8x>6[4:3],
{1}4bxh[4:3],
{1}2h[4:3]/6h[4:3],
{8}35,35,,4b-1[8:1]b/5b-8[8:1]b,{2},
{16}7x/8x,,,45,,,{8}1h[8:3]/3,,8,{4}8,
{16}56,,,3<8[16:5]/4h[16:9],,,{8},{2},
{16}16,,,27,,,{8}3-8[8:1]/8-4[8:1],{2},
{1}5h[8:5]/8z4[8:3],
{16}6h[16:3],,,7h[16:3],,,{8}8,,12,{4}12,
{16}3h[16:3],,,4h[16:3],,,{8}5,,56,{4}56,
{2}4-8[8:1]/7-5[8:1],{8},16,{4}16,
{16}2x/4x,,,4x/5x,,,{8}5x/7x,,3b/8b,{4},
{16}1x/2x,,,45,,,{8}6/8h[8:3],,1,{4}1,
{16}34,,,5h[16:9]/6>1[16:5],,,{8},{2},
{16}38,,,27,,,{8}1-5[8:1]/6-1[8:1],{2},
{1}1s5[8:3]/4h[8:5],
{16}3h[16:3],,,2h[16:3],,,{8}1,,78,{4}78,
{16}6h[16:3],,,5h[16:3],,,{8}4,,34,{4}34,
{16}78,,,16,,,{8}2h[8:3]/5,,4,{4}4>6[2:1],
{2},1b,
{16}2h[16:3],,,4,,,{8}1,1,8,{4}17,
{16}6h[16:3],,,5,,,{8}47,{4}4/7^4[8:1],3,
{16}2h[16:3],,,4,,,{8}1,1,8,{4}17,
{16}6h[16:3],,,5,,,{8}34,{4}34,28,
{16}7h[16:3],,,5,,,{8}8,8,1,{4}28,
{16}3h[16:3],,,4,,,{8}25,{4}2^5[8:1]/5,6,
{16}7h[16:3],,,5,,,{8}8,8,1,{4}28,
{16}3h[16:3],,,4,,,{8}25,{4}25,1x/8x,
{16}2bx,,,5bx,,,8bx,,,1bxpp6[16:11],,,{4}7bx,
{1},
E
MASTER
(180)
{1},
{1},
{16}3h[16:3],,,4h[16:3],,,3,,3,,,,2/4,,,,
{16}2h[16:3],,,4h[16:3],,,2,,2,,,,3/5,,,,
{16}6h[16:3],,,5h[16:3],,,6,,6,,,,5/7,,,,
{16}7h[16:3],,,5h[16:3],,,6,,6x,,,7/5x,,,6/2x,,
2/6x,,{16}3,5x,3,5,3x,5,3x,5,3x,5,3x,5,3,5,
2x,4,2,4x,2,4,2x,4,2x,4,2x,4,{4}2x,
{16}1xh[8:1],{8},{16}2xh[8:1]/8xh[8:1],{8},7x/3,3/7x,{16}6x,5,6x,5,{8}6,
{16}7/4x,{8},{16}5/2x,{8},8/1x,,8xh[64:1],{4}8xh[64:1],
{16}1b/2b-5[8:1],{8},{16}1,{8}2,8,7,{16}6,5,{8}6,7/4,
{16}3/8-4[8:1],{8},{16}2,{8}8,1,{16}2,4,{8}2,{4}5/3,
{16}7-4[8:1],{8},{16}8,{8}7,1,2,{16}3,4,{8}3,5/2,
{16}6/1-5[8:1],{8},{16}7,{8}1,8,{16}7,5,{8}7,{4}6/4,
{16}5/3-8[8:1],{8},{16}4,{8}3,5,6,{16}7,8,{8}7,6/1,
{16}2/5-1[8:1],{8},{16}3,{8}5,4,{16}3,1,{8}3,{4}8/2,
{16}6-1[8:1],{8},{16}5,{8}6,4,3,{16}2,1,{8}2,3/8,
{16}3/8,{8},{16}6/1,{8},2/7,{4}7/2,4/5,
3bV17-5<2[2:3],5,5,5,
4,4,4,4,
6V82-4>7[2:3],4,4,4,
5,5,5,5,
3V16V82[4:5],5,5,5,
4,4,4,5-1[8:1],
5b/2bh[4:3],{2},{16}1,8,7,6,
{8}1/5,{16}2,4,,7,{8}5,1/8,1/8,{4}2b/7b,
{16}2h[16:3],,,1,,,{8}8/3,8/3<6[8:1],7,{4}7,
{16}7h[8:1]/6h[8:1],{8},{16}5h[8:1]/8h[8:1],{8},1/4V26[4:1],,8,{4}8,
{16}5/7h[16:3],{8},{16}1h[16:3],{8},3,{16}4/2h[16:3],{8},{16}8h[16:3],{8},6,
{16}5/7h[16:3],{8},{16}1h[16:3],{8},3,4/2,{8},{4}5/1,
{8}7h[16:3],{16},8,{8},1/6,1/6>3[8:1],2,2,
,2h[8:1]/3h[8:1],{16},1h[8:1]/4h[8:1],{8},{4}8/5V73[4:1],{8}1,1,
,1/8h[16:3],{16},5,{8},7/1,7/1h[16:3],{16},3,{8},2/8,
2/8h[16:3],{16},6h[16:3],{8},4,7/3,,1b/8b,{8},
{16}3,4,3,4,3,4,3,4,2,5,2,5,2,5,2,5,
3,4,3,4,{4}2-7[8:1]*-4[8:1],{2}2b,
{16}6,5,6,5,6,5,6,5,7,4,7,4,7,4,7,4,
{8}6,6-4[8:1],,6-1[8:1]*-2[8:1],,6b,{4},
{16}2,4,2,4,2,4,2,4,3,5,3,5,3,5,3,5,
{8}4,4-2[8:1],4-7[8:1],4>6b[4:1],{2},
{16}8x,,,5x/6,,,4x/3,,
8/2x,,,3/4x,,,5/6x,,{16}A7/B7/E8/E7f/D7/D8,,,D2/D3/B2/A2/E2/E3f,,,8b/1b,,,,,,,,,,
{32}1b,2x,3x,4xh[16:1],,,1b<5[8:1],2x,3x,4xh[16:1],,,1b,,,,{8},8,7,6,
{16}5h[8:1]/1h[8:1],{8},{16}2h[8:1]/4h[8:1],{8},6,{4}7/5-1[8:1]*-2[8:1],5x,
{32}8b,7x,6x,5xh[16:1],,,8b>4[8:1],7x,6x,5xh[16:1],,,8b,,,,{8},1,2,3,
4/8,{16}7-3[8:1],5,{8}6,7x/8x,,1,{4}2b/8b,
{16}7/3h[16:3],{8},{16}4,{8}3,2/5,{16}7,8,{8}7,6/1,2,
{16}4h[8:1]/3h[8:1],{8},{16}8h[8:1]/1h[8:1],{8},5/6-3[8:1],,6x/1x,{4}1x,
{8}2/4,{16}3,4,{8}2,{16}6,5,{8}7,2/1,3/8,4/7,
5/6,5-1[8:1]/6-2[8:1],,6/5,,3bx/8bx,{4},
{32}8b,7x,6x,5xh[16:1],,,8bV24[8:1],7x,6x,5xh[16:1],,,8b,,,,{8},1,2,3,
{16}4h[8:1]/8h[8:1],{8},{16}7h[8:1]/5h[8:1],{8},3,{4}2/4-8[8:1]*-7[8:1],4x,
{32}1b,2x,3x,4xh[16:1],,,1bV75[8:1],2x,3x,4xh[16:1],,,1b,,,,{8},8,7,6,
5/1,{16}2-7[8:1]*-5[8:1],4,{8}3,2x,,4/8,{4}8b/4b,
{16}2h[16:3],{8},{16}1,{8}2,3/8,{16}6,5,{8}6,7/4,8,
{16}1h[8:1]/2h[8:1],{8},{16}5h[8:1]/4h[8:1],{8},7-3[8:1],8-4[8:1],7,{4}8,
{8}2h[8:1],{16}4,4h[8:1],,5,{8}5h[8:1],{16}7,8,{8}6,{4}5/1,
{32}1,2x,3x,4x,5x,6x,7x,8x,1x,2x,3x,4x,5x,6x,7x,8x,{4}1xw5[8:1],1,
{2}3b/7b,{8}2/5,3/4,{4}2/5,
{16}5h[8:1],{8},{16}4h[8:1]/6h[8:1],{8},3/7,{2}3-1[8:1]/7-5[8:1],
{16}2h[16:3],{8},{16}4h[16:3],{8},3-5-1-7[8:3],{2}3,
{16}6h[16:3],{8},{16}5h[16:3],{8},6p4[4:1],{2}6,
{16}2h[16:3],{8},{16}1h[16:3],{8},3v4-6[8:3],{2}3,
{16}7h[16:3],{8},{16}8h[16:3],{8},1qq5[8:3],{2}1,
{16}4h[16:3],{8},{16}3h[16:3],{8},2V46[4:1],{2}2,
{8}5/7,{16},4/2,{8},1/8,8/1,,6b/3b,{8},2/5,
{16}3,4,,4,{8}2,1/8,{16}6,5,,5,{8}7,
8/1,{16}2,4,,4,{8}3,6/5,{16}7,8,,8,{8}6,
3/4,{16}2,1,,7,{8}8,6/5,{16}7,8,,2,{8}1,
4/3,{16}2,1,,7,{8}8,{8}5-3[8:1]/6-8[8:1],,5/6,,
{16}2xh[4:1]/E2,E3,E4,E5,{4}E6,{16}7h[4:1]/E1,E8,E7,E6,{4}E5,
{16}2xh[4:3]/E2,E3,E4,E5,E6,E7,E8,D1,D2,D3,D4,D5,{4}D6,
{16}A1,E1,E8,A7,E2,B1,B7,E7,A2,B2,B6,A6,E3,B3,B5,E6,
A3,E4,E5,A5,A8,B8,C,B4,{4}A4f/1b-5b[8:1],1,
{16}7h[16:3],{8},{16}5h[16:3],{8},6,{16}3h[16:3],{8},{16}4h[16:3],{8},2,
{16}2h[8:1],{8},{16}1h[8:1]/3h[8:1],{8},8/4,{2}4-1[8:1]/8-5[8:1],
{16}2h[16:3],{8},{16}3h[16:3],{8},4,{16}5h[16:3],{8},{16}6h[16:3],{8},7,
{16}8h[16:3],{8},{16}1h[16:3],{8},2,{2}2v5[8:1]*-4[8:1],
{16}6h[16:3],{8},{16}7h[16:3],{8},8,1/2,3,4/5,6,
{16}7h[8:1]/5h[8:1],{8},{16}4h[8:1]/2h[8:1],{8},1h[8:1]/8h[8:1],,3/6,6/3,,
7h[8:1],{16}8,7,,,6/1,,2h[8:1],,1,2,,,3/8,,
7/4,{16},6,5,,3,4,,6-1[8:1]/2-5[8:1],,,,2x/6x,,,,
{1}3b/7b,
{4},,,{8},7/3,
{16}2,6,2,6,{8}2,3bx/7bx,{16},5bx/1bx,{8},{4}2bx/6bx,
{32}1b/7,2x,3x,4xh[16:1],,,2b<5[8:1],3x,4x,5xh[16:1],,,2b,,,,{8},1,8/3x,6,
{16}5h[8:1]/1h[8:1],{8},{16}7h[8:1]/8h[8:1],{8},4/3,{4}6/2-6[8:1],2/8,
{32}8b/2,7x,6x,5xh[16:1],,,7b>4[8:1],6x,5x,4xh[16:1],,,7b,,,,{8},8,16,3,
8/4,{16}2-7[8:1]*v5[8:1],1,{8}3,2x,,8/4,{4}4b/8b,
{8}5/2,{16}3,4,{8}2,1/8,{16}6,5,{8}7,1/8,{16}2,1,
{8}3,{16}7-3[8:1]*-5[8:1],8,{4}6,{8},2/5,{4}2/5,
{8}6/1,{16}2,4,{8}3,{16}6,5,{8}7,1/2,3/4,5/6,
7/8,1-5[8:1]/2-6[8:1],3/8,1/2,,7bx/8bx,{4},
{32}1b/8,2x,3x,4xh[16:1],,,2b<5[8:1],3x,4x,5xh[16:1],,,,2b,,,{8},1,8/3x,6,
{16}5h[8:1]/1h[8:1],{8},{16}3h[8:1]/4h[8:1],{8},7/8,{4}2-5[8:1]/6-1[8:1],6/2,
{32}8b/2,7x,6x,5xh[16:1],,,7b>4[8:1],6x,5x,4xh[16:1],,,,7b,,,{8},8,1/6x,3,
8/4,{16}6-1[8:1]*v3[8:1],5,{8}7,6x,,8/4,{4}5/7,
{8}6/1,{16}2,4,{8}3,4/5,{16}6,5,{8}7,8/2,{16}2,1,
{8}3,{16}7,5,{8}6,5/4,{16}3-8b[8:1]*-7b[8:1],4,{8}2,{4}3,
{8}1/6h[8:1],{16}8,8h[8:1],,1,{8}1h[8:1],{16}2,1,{8}3,{16}7,8,{8}6,
{32}5/1,2,3,4,5,6,7,8,1,2,3,4,5,6,7,8,{4}1bw5b[8:1],1,
{2}B7/A7/A3/B3/Cf,{8}8/3,{16}2,1,2,1,{8}2,
{16}3>8[8:1],{8},{16}4,{8}3,6,{16}7,8,{8}7,{4}1/6,
{16}2>5[8:1],{8},{16}1,{8}2,8,7/4,{16}6,5,6,5,{8}6,
{16}7-4[8:1],{8},{16}8,{8}7,1,{16}2,4,{8}2,{4}1/5,
{16}6<1[8:1],{8},{16}5,{8}6,4,3/8,{16}2,1,2,1,{8}2,
{16}3-7[8:1],{8},{16}4,{8}3,5,{16}6,8,{8}6,{4}1/5,
{16}3>8[8:1],{8},{16}4,{8}3,5,6/1,{16}7,8,7,8,{8}7,
{16}6/5,,,4/3,,,5/1,,{16}1v4[8:1]/5v8[8:1],2/6,{8}3/7,{4},{8}7h[8:1]/3h[8:1],
{16},2h[8:1]/1h[8:1],{8},{16}6h[8:1]/7h[8:1],{8},{16}4h[8:1]/3h[8:1],,,5bh[8:7]/1b>4q2[8:5],,,,
{1},
{1},
E
Re:MASTER
最終更新:2026年06月19日 20:05