アットウィキロゴ

時計の国のジェミニ

アーティスト 黒魔

BPM BASIC ADVANCED EXPERT MASTER Re:MASTER
180 4 7+ 10 13 13+

EXPERT MASTER Re:MASTER
譜面制作者 はっぴー 華火職人 アマリリス

BASIC


ADVANCED


EXPERT


MASTER

(180)
{1},
{1},
{8}6,6,4,4,,E8,B1,6xh[8:1],
{8},6x,4,4,,E8,B1,,
{8}4,4,6,6,,E2,B8,4xh[8:1],
{8},4x,6,6,,E2,B8,,
{8}5/6,6,4,4,4/5,B7,B2,5x/6xh[8:1],
{8},6x,4,4,4/5,B7,B2,,
{1}1b/8b>8[4:5],
{1},
{32}1x/8x,7x,6x,5x,,,,,,,,,1x/8x,2x,3x,4x,,,,,,,,,2b/7b,,,,2b/7b,,,,
{1},
{8}3h[8:7],,,,,,,2h[8:3],
{8},,1h[8:3],,,4,,2h[4:1]/5h[4:1],
{8},,,3/6,,4/7,,5h[4:1]/8h[2:1],
{8},,,2,,3/7,,,
{32}7x,6x,5xh[16:11],,,,,,,,,,,,,,2x,3x,4xh[16:3],,,,,,,,,,,,,,
{4}5/6,3/4,,,
{8}1/8,2/7,3/6,4b/5b,,1b/8b,,3b/6b,
{8},,,5,5,2<5[8:3],2,8,
{8},,,7,7,1,1,8h[4:1],
{8},6,6,,4/5,3-8[8:1],3,4,
{8},4-7[8:1],4,3,,3-8[8:1],3,4h[8:3],
{4},5xh[4:1],6xh[4:1],7xh[4:1],
{4}8-5[8:1],1,8-3[8:1],7,
{4}4x/5x,1x/8x,C1f/B2/B3/B6/B7,,
{4}1-4[8:1],8,1-6[8:1],2,
{8}3,2/4,6,5/7,1b/8b,,,E6/E7/E8,
{8},B1,B4,E2,E4,E3,,B5/E7/B8,
{8},B1,B4,E2,E4,E3,,C1f/B3/E5/B6,
{16},,7,8,7,8,7,,2,1,2,1,2,,3x/4x,,
{8},5x/6x,,2b/7b,,,,E2/E3/E4,
{8},B8,B5,E8,E6,E7,,B1/E3/B4,
{8},B8,B5,E8,E6,E7,,C1f/B3/E5/B6,
{16},,2,1,2,1,2,,7,8,7,8,7,,5x/6x,,
{8},3x/4x,,2b/7b,,,,8>8[8:19],
{32},,,,,,,,,,,,,,,,B2,C1,,,,,,,,,,,,,,,
{32},,,,,,,,,,,,,,,,B4,C1,,,,,,,,,,,,,,,
{32},,,,,,,,,,,,,,,,B6,C1,,,,,,,,,,,8h[8:3],,,,
{8},1,1,,,,,4/5,
{8},3/6,3/6,3/6,2/7,2/7,2/7,2s6[8:3]/7,
{8},,,,,,,2/7,
{8},4/5,4/5,,2/4,3,5/7,6,
{8}1b-5[4:1]*v4[4:1]/8b,,,,,,,1/8,
{16},,3,4,1p4[8:1],,2,,3,,,,1,,1b/4b,,
{8},2,2-5[8:1],,1,1,,4/7,
{16},,6,5,8>5[16:3],,7,,6h[4:1],,,,,,5b/8b,,
{8},7,7-3[8:1],,2,2,,1h[4:1]/4,
{8},4,5,6/8,,1/3,,4x/5x,
{8},1x/8x,,2b/3b,,6b/7b,,5/8>4[8:1],
{8},7,,1<5[8:1],,2,,1b/3b,
{8},6b/8b,,E7,E3,C1,,1/8,
{16},,6,5,8q5[8:1],,7,,6,,,,8,,5b/8b,,
{8},7,7-4[8:1],,8,8,,2/5,
{16},,3,4,1<4[16:3],,2,,3h[4:1],,,,,,1b/4b,,
{8},2,2-6[8:1],,7,7,,5/8h[4:1],
{8},5,4,1/3,,6-2[8:1]/8,,1-5[8:1]/6x,
{8},1x/7-3[8:1],,2-6[8:1]/7x,,2x/8x,,1<5[8:1],
{8},2,,8>4[8:1],,7,,6b/8b,
{8},1b/3b,,5,5,1p2[2:1],1,C1f,
{8},,,6,6,2q3[2:1],2,C1f,
{8},,,7,7,3q4[2:1],3,C1f,
{8},,,8,8,4q5[2:1],4,C1f,
{8},,,1,1,5q6[2:1],5,C1f,
{8},,,8,8,6q7[2:1],6,C1f,
{8},,,8,8,,2/7,2/7,
{16},,6,5,6,,3,4,3,,1/8,,1/8,,3b/6b,,
{1},
{8}2,2,8,8,,E4,C1,2xh[8:1],
{16},,2x,,8,,8,,,,B8,B7,B6,B5,B4,,
{8}2,2,8,8,,E4,C1,2xh[8:1],
{16},,2x,,8,,8,,,,B1,B2,B3,B4,B5,,
{8}7,7,1,1,,E6,C1,7xh[8:1],
{16},,7x,,1,,1,,,,B1,B2,B3,B4,B5,,
{1}1b/8b>8[4:5],
{1},
{32}7x/8x,6x,5x,4x,,,,,,,,,7x/8x,1x,2x,3x,,,,,,,,,1x/2x,8x,7x,6x,,,,,
{96},,,,,,,,,,,,1x/2x,,,3x,,,4x,,,5x,,,,,,,,,,,,,,,,,,,,,,,,,,,8x,,,,,,,,1x,,,,,,,,7x,,,,,,,,2x,,,,,,,,,,,,,,,,,,,,,,,,
{32}4x/5x,6x,7x,8x,,,,,,,,,4x/5x,3x,2x,1x,,,,,,,,,1b/8b,,,,1bs5[8:3]/8b,,,,
{1},
{8},,,,,,,6h[1:1],
{8},,,,,,,5h[1:1],
{8},,,,,,,4h[1:1],
{8},,,,,,,3,
{8},,,,,,,E7,
{8},,,E3,,,,E4/E6,
{8},B3/B6,,B2/B7,,E2/E8,,C1xh[1:1],
{1},
{4},,,8x,
{8}1x,,,4,4,8q7[2:1],8,C1f,
{8},,,3,3,7p6[2:1],7,C1f,
{8},,,2,2,6p5[2:1],6,C1f,
{8},,,1,1,5p4[2:1],5,C1f,
{8},,,8,8,4p3[2:1],4,C1f,
{8},,,1,1,3p2[2:1],3,C1f,
{8},,,1,1,,2/7,2/7,
{16},,3,4,2,,6,5,7,,4/5,,3/6,,2b/7b,,
{8},,,,,,,5/7>2[8:1],
{8},5,4,3<6[8:1],,1,8,7>2[8:1],
{8},5,4,3,,2x/7x,2x/7x,1>4[8:1],
{8},5,6,7>2[8:1],,3,4,5h[4:1],
{16},,1x,8x,7x,,1x,2x,3x,,1,,2/8,,3/7,,
{8}4/6,7,4/6,7,1/8,2,1/8,2,
{8}3/5,6,3/5,6,1/7,2,1b/7b,,
{16}3,4,2,,6,5,7,,3,4,1,,6,5,8,,
{4}2/7,E3,E7,C1,
{8}E1,,E5,,,2b/7b,,4b/5b,
{32},,,,,,,,,E1,,,,,,,,,,,,,,,,,,,,,,,
{1},
{1},
{1},
E

Re:MASTER

(180)
{1},
{1},
{8}2/4h[8:3],2,3,3,,E3,E5,2h[4:1],
,4,4,5/3-5[8:1],,6x,{4}6x,
{8}7/5h[8:3],7,6,6,,E7,E5,7h[4:1],
,5,5,4/8-4[8:1],,3x,{4}3x,
{8}2/4h[8:3],2,3,3,,E3,E5,2h[4:1],
,4,4,5/1q5[8:1],,6x,{4}6x,
4b/8b,{8}E5,E7,E4,E8,A2,A1,
3xh,4xh,2xh,5xh,1xh,6xh,{4}7xh/8xh,
{24}81,7,6,5,,,,,,81,2,3,4,,,,,,{8}2b/7b,7b/2b,
,,,3h[4:1],,4h[4:1],,2q4[4:3],
,,,,6h[4:1],,,6,
,,{4}6/5,{8},5/6,,5h[4:1]/7h[4:1],
,,,4h[4:1]/6h[4:1],,,,5h[4:1]/3h[4:1],
,,,5/3,,4/2,{4}2/4,
3h[4:1],4h[4:1],5h[4:1],6h[4:1],
7p3[8:3],5h[4:1],{8},,,,1,
8/2,3/7,4/6-3[8:1],,6/1-4[8:1],,1bx,
{16},,,,,,5,5,{8}4,3,{4}2/1,
3/8,{8}2,1,3,1,4,3/8,
,8,1,2/7,,7,8,1/6,
,6,8,1/5,,5,8,1/4h[4:1],
,2,3,3h[8:1],1,1h[8:1],{4}8,
8/7,{8}1/4<7[8:1],2,{4}3,{8}5>2[8:1],7,
{4}6,4-8[8:1],4,{8}2-5[8:1],8,
{4}2,{8}7-4[8:1],1,{4}7,{8}3,3/4,
{16}2,4,3,5,4,6,5,7,{8}6bx,,,5/7h[4:3],
,E6,E7,E8,E1,E2,,4/2h[4:3],
,E4,E3,E2,E1,E8,,3/7,
{16},,7,5,7,5,{8}6,{16}2,4,2,4,{8}3,4b/6b,
,3b/8b-5[8:1],,1b/8b,{16},,,,2,3,{8}4/7h[4:3],
,D6,D7,D8,D1,D2,,6/2h[4:3],
,D4,D3,D2,D1,D8,,2/6,
{16},,6,8,6,8,{8}7,{16}3,1,3,1,{8}2,8b/4b,
,3b/7b-3[8:1],,7b/5b,,,,4x>7[1:1],
,,,,,,,7x<2[1:1],
,,,,,,,2x<7[8:5],
,,,,,,,6x,
,5x/7x,{4}4bx/8bx,{8}4/8,3/7,6/2,5/1h[8:5],
,5,5,4,4,3/1-5[8:1],3,B1f,
,,,,{4}5/6,{8}7/8,8>5[8:3],
,5,6,6,7,7,8,8,
1bv3>2[8:3]/5bv7>8[8:3],,,,,,,2b/1b,
{16},,2,4,{8}1p5[8:1],7,{4}3x/1x,{8}4,5/3,
,3/4h[4:1],2,1,8/5,6-1[8:1],8,6bx/2bx,
{16},,2,3,{4}4h[4:1],{8}2,2<6[4:1],,6<2[4:1],
,5,{4}5,{8}4,4-6[8:1],,4/7,
,,8,5/8-5[8:1],,8/4-1[8:1],,4-7[8:1],
,4>2[8:1],,4,,1-5[8:1]/6-8[8:1],,6bx/1bx,
,7,4,4,,2V46[4:1],6,2b/8b,
,,,7,8/1,2,3/4,5/6,
{16},,7,5,{8}8q4[8:1],2,{4}8x/6x,{8}5,4b/6b,
,6/5h[4:1],7,8,1/4,3-8[8:1],1,3b/8b,
{16},,7,6,{4}5h[4:1],{8}7,7>3[4:1],,3>7[4:1],
,4,{4}4,{8}6,6-2[8:1],,6/4,
,,3,3/4,,5/2,,3-6[8:1],
,3/7q3[8:1],,7/4-1[8:1],,4/5,,6b,
,8-4[8:1]/7-3[8:1],1/6,8b/7b,,1-5[8:1]/2-6[8:1],8/3,1b/2b,
,4b/7b,,6,5,4/3<7[4:1],2,1b/A3f,
,,,3,4,5/6>2[4:1],7,8b/A6f,
,,,6,5,4/3<7[4:1],2,1b/A3f,
,,,3,4,5/6>2[4:1],7,8b/A6f,
,,,6,5,4/2>6[4:1],1,1b/A2f,
,,,3,4,5/7<3[4:1],8,8b/A7f,
,,,7,4/6,5/3,4/2,3b/1b,
{16},,1,8,{8}1,{16}7,8,{8}7,3/4,4/3,2b/5b,
,,,Cfh[8:3],,,,,1,
1h[4:1],7,7,,E7,E1,6h[4:1],
,8,8,7h[4:1]/1v3<4[4:1],,,,,8,
8h[4:1],2,2,,E3,E1,3h[4:1],
,1,1,{16}2,8,{8}2,3x/7x,{4}7x/3x,
{8}6,6h[4:1],4,4,,E6,E3,3h[4:1],
,4,4,5/2>4v6[4:1],,,,,{4}7b,
{8}E7,B7,B8,B1,B2,E3,
6xh,5xh,4xh,3xh,2xh,1xh,{4}8xh/1xh,
{24}2x/1xh[8:1],3,4,5,,,,,,1x/2xh[8:1],8,7,{4}6,{24}7x/8xh[8:1],6,5,4,,,,,,8x/7xh[8:1],
1,2,{4}3v6[8:1],,7,
{24}8b,7x/1x,2x/6x,3x/5x,,,,,,1b,2x/8x,7x/3x,{4}6x/4x,{8}2b/6b,6bh[8:45]/2bh[8:45],
{1},,,,,{4},,,{8},5h[4:3]/3h[4:3],
,,,,,,,4h[4:1]/2h[4:1],
,,,5h[4:1]/3h[4:1],,,,4/6,
,6/4,,3/5,,5/3,,2<7[8:3]/6>3[8:3],
,,,,,,{4}E8,
{8}B3/B4/E4,,,7,8,1/2<6[4:1],3,4b/A2f,
,,,2,1,8/7>3[4:1],6,5b/A7f,
,,,7,8,1/2<6[4:1],3,4b/A2f,
,,,2,1,8/7>3[4:1],6,5b/A7f,
,,,7,8,1/3>7[4:1],4,4b/A3f,
,,,2,1,8/6<2[4:1],5,5b/A6f,
,,,6,7/1,8/2,3/1,2b/4b,
{16},,4,5,{8}2,{16}6,5,{8}8,2-5[8:1]/6-1[8:1],5/1,2b/6b,
,,,,,,,6<8[8:1],
,3,4,5h[4:1],,8,1,2<8[8:1],
,4,3,1h[4:1],,4,5,7-4[8:1],
,8,8,2-5[8:1],,1,1,6,
{16},,7,8,{8}6,{16}2,1,{8}3,4,5/6,4/7,
,2,3/4,7,6/5,2,3/4,8,
6/5,1,3/4,8,5/7,1,2/4,4/5,
{16}6,5,{8}7,{16}3,4,{8}2,{16}7,5,{8}8,{16}2,4,{8}1,
{4}2b/7b,D8,A8,D1,
A1,D2,{8}3/6,6/3,,4b/5b-1[8:1]*-8[8:1],
,,{4}D1f/A1/A8,,,
{1},
E

名前:
コメント:

タグ:

+ タグ編集
  • タグ:
最終更新:2026年04月12日 09:31