アットウィキロゴ

アイドル

アーティスト YOASOBI

BPM BASIC ADVANCED EXPERT MASTER Re:MASTER
166 3 6 9+ 11 13

EXPERT MASTER Re:MASTER
譜面制作者 ロシェ@ペンギン 緑風 犬三郎 Luxizhel

BASIC


ADVANCED


EXPERT

(166)
{2}2hx[2:3]/5x,{4}4,4,
{4}5,5v6[4:1],{2},
{2}4x/7hx[2:3],{4}5,5,
{4}4,4v3[4:1],{2},
{2}2hx[2:3]/5x,{4}4,5,
{4}6,6v5[4:1],{2},
{2}4x/7hx[2:3],{4}5,4,
{4}3,3v4[4:1],{2},
{2}3hx[4:1]/8hx[4:1],{4}1hx[4:1]/6hx[4:1],{8},57,
{8},24,,45,{4}45,3b/8b,

{2}B6/B7/B8,B1/B2/B3,
{2}B5/B6/B7,B2/B3/B4,

{4}6x,6,{2}57,
{4}3,3,{2}24,
{4}7h[4:1],5,3h[4:1],5V38[2:1],
{1},
{4}3,3,{2}24,
{4}6,6,{2}57,
{4}2h[4:1],4,6h[4:1],4pp1[2:1],
{1},

{8}5hx[16:3]/7hx[16:3],,,57,,45,{4}45,
{8}2h[16:3]/4h[16:3],,,24,,45,{4}45,
{2}7-3[8:1],1-5[8:1],
{1}6q3[4:1],
{8}2hx[16:3]/4hx[16:3],,,23,,45,{4}45,
{8}5h[16:3]/7h[16:3],,,67,,45,{4}45,
{2}2-6[8:1],8-4[8:1],
{4}3h[4:1],4,{2}2b/5b,

{4}7h[2:1],{8},5,{4}5,6x/7x,
{4}7h[2:1],{8},5,{4}5,6x/7x,
{4}2h[2:1],{8},4,{4}4,2x/3x,
{4}2h[2:1],{8},4,{4}4,2x/3x,
{4}5,5x/6x,4,5x/7x,
{4}4,3x/4x,5,2x/4x,
{4}5,5x/7x,4,5x/8x,
{4}4,2x/4x,5,1x/4x,
{4}3h[4:1]/4h[4:1],{8},56,{4}56,{8}24,24,
{8},57,{4}57,{2}1x/6x,

{4}1bx/2bx,34,56,{8}78,78,
{8},6,5,4,{4}3h[4:1],4,
{4}6h[4:1],5,34,{8}57,57,
{8},24,{4}2h[4:1]/4,1b,3b/8b,
{4}7bx/8bx,56,34,{8}12,12,
{8},3,4,5,{4}6-8[8:1],5,
{4}3-1[8:1],4,68,{8}34,34,
{8},56,,28,{2}2b/8b-4[8:1],

{4}3hx[4:3],E5,B2,D1,
{4}6h[4:3],E5,B7,D1,
{4}3,24,15,68,
{1}7pp4[2:1],
{4}3hx[4:3],E5,E3,D1,
{4}6h[4:3],E5,E7,D1,
{4}18,27,36,{8}45,4-1[8:1]/5,
{2},(150){4}2x/6x,1bx/8bx,

{2}3hx[4:1]/7hx[4:5],5h[4:1],
{2}8h[4:1],{4}6x/7x,4x/5x,
{2}2hx[4:5]/6hx[4:1],4h[4:1],
{2}1h[4:1],{4}2x/3x,4x/5x,
{2}3hx[4:5]/7hx[4:1],4h[4:1],
{2}2h[4:1],{4}1x/4x,3x/7x,
{2}2hx[4:1]/6hx[4:5],5h[4:1],
{2}7h[4:1],{4}5x/8x,2x/6x,

{2}3hx[4:1]/8hx[4:5],{8}5,5,{4}5,
{8}6,6,{4}6,5x/8x,3x/7x,
{2}1hx[4:5]/6hx[4:1],{8}4,4,{4}4,
{8}3,3,{4}3,1x/4x,2x/6x,
{2}3hx[4:1]/8hx[4:5],{8}5,5,{4}5,
{8}6,6,{4}6,5x/8x,3x/7x,
{2}1hx[4:5]/6hx[4:1],{8}4,4,{4}4,
{8}3,3,{4}3,{2}2b/6b,

(158)
{4}E7,E3,{2}B4/B5/E5,

{1}7>3q5[4:5],
{1},
{1}2<6p4[4:5],
{1},
{2}D5,E4/E6,
{2}E3/E7,E2/E8,
{2}B1/B8,E3/E7,
{1}Ch[8:7],

{2},(166),

{4}5h[1:2],3,4,3,
{4}4,3,4,3,
{4}4h[2:1],6,7,{8}58,5bx/8bx-4[8:1],
{2},{4}3x/5x,1x/7x,

{4}1b/2b,16,3/8h[8:3],{8}5,5,
{8},7,6,5,{4}4-2[8:1],1,
{4}8-6[8:1],5,45,{8}34,34,
{8},56,,28,{2}2x/8x-4[8:1],

{4}3x/5x,2bx/8hx[4:1],{8}5,5,{4}7bx,
{4}3x/5x,1hx[4:1]/7bx,{8}4,4,{4}2bx,
{4}45,6bx/8bx,45,6bx/8bx,
{4}45,1bx/3bx,45,1bx/3bx,
{4}4x/6x,1hx[4:1]/7bx,{8}4,4,{4}2bx,
{4}4x/6x,2bx/8hx[4:1],{8}5,5,{4}7bx,
{4}45,1bx/6bx,45,{8}3bx/8bx,3x/8x,
{8},1x/6x,,3x/7x,{4}3x/7x,1bx/8bx,

{4}E2,B3,{2}D5,
{4}E8,B6,{2}D5,
{4}2,8,6,{8}4,4pp4[2:1]*qq4[2:1],
{1},
{1}8bx,
E

MASTER

(166)
{1}2h[1:1]/5h[1:1],
{4},34,{8},56,{4},
{1}4h[1:1]/7h[1:1],
{4},78,{8},12,{4},
{1}3h[1:1]/8h[1:1],
{4},12,{8},78,{4},
{1}1h[1:1]/6h[1:1],
{4},56,{8},34,{4},
{2}1>4[8:1],{4}8<5[8:1],{8}3,3,
{8},12,,38,{2}3/8-4[8:1],

{4}2h[4:1],4h[4:1],5h[4:1],7h[4:1],
{4}2h[4:1],4h[4:1],5,36,

{8}7,7,{4}5,48,{8}3,3,
{4}5,26,26,35,
{4}6-3[8:1],1-5[8:1],8-4[8:1],3,
{4}12,78,12,78,
{2}7-3[8:1]/8-4[8:1],{4}25,34,
{2}1-5[8:1]/2-6[8:1],{4}47,56,
{4}7h[4:1],5,2h[4:1],4q5[2:1],
{2},{4},3x/6x,

{16}7h[16:3],,,6h[16:3],,,5,,{8},34,{4}34,
{16}2h[16:3],,,3h[16:3],,,4,,{8},56,{4}56,
{4}7-3[8:1],2-6[8:1],8-4[8:1],1>6[2:1],
{2},{4}8b,78,
{16}6h[16:3],,,7h[16:3],,,8,,{8},12,{4}12,
{16}3h[16:3],,,2h[16:3],,,1,,{8},78,{4}78,
{2}7x<4[8:1]/8x>3[8:1],{4}2x/5x,{8}47,47,
{8},8,{4}8-5b[8:1],3b,1,

{4}7h[8:3],{8},5,{4}5,1bx/8bx,
{4}2h[8:3],{8},4,{4}4,1bx/8bx,
{4}7h[8:3],{8},5,{4}5,1bx/8bx,
{4}2,34,{8}45,45,{4}3b/6b,
{4}5,7bx/8bx,4,1bx/2bx,
{4}5,1bx/7bx,17,{8}2,2,
{4}4,24,{16}24,,,35,,,46,,
{8},7,7,5,{4}56,47,
{4}25,{8},38,{4}38,{8}16,16,
{8},56,,4b/7b,{2}4bh[4:1]/7bh[4:1],

{4}7-5[8:1]/8-4[8:1],7x/8x,2h[4:1],{8}1,1,
{8},7,{4}7-3[8:1],2-6[8:1],8,
{4}57,2/4-8[8:1],1-5[8:1],{8}7,7h[4:1],
{8},8,{4}8,7-4[8:1]/8-3[8:1],7bx/8bx,
{4}2h[4:1],1-5[8:1],,{8}46,46,
{8},2,{4}2<7[8:1],5,5,
{4}4-1[8:1]/6,5,5,{8}1b,1b>4[8:1],
{8},8<5[8:1],,2,{4}2,3-8[8:1]/4-7[8:1],

{4},{8},2x,{4}2x>5[8:1],7h[4:1],
{4}8,{8}6,6,{4}5,4b/7b,
{4}2b/5b,1-5[8:1],7-3[8:1],2-6[8:1],
{4}8-4[8:1],1>4[8:1],5<8[8:1],3,
{4}26,{8},7x,{4}7p3[4:1]*q3[4:1],{4},
{4},{8},2x/4x,{4}2x/4x,1-4b[8:1]/5,
{4}7,8-5[8:1],3,{8}1,1h[4:1],
{8},8,,2bx/7bx,(150){2}2bx/7bx,

{4}36,{12}5,4,5,{4}4,{12}3,4,3,
{4}4,{12}6,5,6,{4}5,4x/7x,
{4}2x/5x,{12}3,4,3,{4}4,{12}6,5,6,
{4}5,{12}3,4,3,{4}4,1x/2x,
{4}7x/8x,{12}5,7,5,{4}7,{12}2,4,2,
{4}4,{12}7,5,7,{4}5,7x/8x,
{4}1x/2x,{12}2,4,2,{4}4,{12}7,5,7,
{4}5,{12}2,4,2,{4}4,1>5[4:1],

{4}5<1[4:1],1>5[4:1],5<1[4:1],1>5[4:1],
{4}5,1,37,8<4b[4:1],
{4}4>8b[4:1],8<4b[4:1],4>8b[4:1],8<4b[4:1],
{4}4,8,26,1,
{2}1-3[8:1]*-5[8:1],8-4[8:1]*-6[8:1],
{2}1-3[8:1]*-5[8:1],{4}7x,7h[4:1]/8h[4:1],
{4},1b/6b,34,2h[4:1],
{4}4h[4:1],5h[4:1],7h[4:1],1s5[2:1],

(158)
{1},

{2}7<3[2:1],1,
{2}2>6[2:1],8,
{2}7<3[2:1],1,
{4}2h[4:1],4,35,2x/4x,
{2}3>7[2:1],5,
{2}6<2[2:1],4,
{2}3>7[2:1],5,
{2}6-1[4:1],{4},{8},8h[256:191],
{2},(166){8},1,{4}1h[4:11],

{4}E5,E6,E7,E8,
{4}E1,E2,E3,E4,
{4}E5,E6,E7,{8}7x/8x,7x/8x,
{8},18,{4}18,1-6[8:1]/2-5[8:1],1x/2x,

{4}7-4[8:1],3-8[8:1],6-3[8:1],{8}1,1h[4:1],
{8},4,{4}4-1[8:1]*-7[8:1],,2x/6x,
{2}5pp5[4:1]*qq5[4:1],{4},{8}4x/6x,4x/6<1[8:1],
{8},2>5[8:1],,8,{4}8,7-4[8:1]/8-4[8:1],

{4}7x/8x,{8}3bx/5bx,35,{4}35,1-5[8:1]/2-5[8:1],
{4}1x/2x,{8}4bx/6bx,46,{4}46,78,
{4}1V35[4:1]/6,5V71[4:1],1V35[4:1],5V71[4:1],
{4}1,5,37,2-5[8:1]/8-5[8:1],
{4}2x/8x,{8}4bx/6bx,46,{4}46,1-4[8:1]/7-4[8:1],
{4}1x/7x,{8}3bx/5bx,35,{4}35,28,
{4}7-3[8:1],1-5[8:1],8-4[8:1],2>1[2:1],
{2},{4},1q6[4:1]/2>5[4:1],

{4},{8},7h[4:1],,8,{4}7<4[4:1]/8p3[4:1],
{4},{8},2h[4:1],,1,{4}1-5[8:1]/2-6[8:1],
{4},7-3[8:1]/8-4[8:1],,{8}2,2-6[8:1],
{8},5<8[8:1],,3,{4}3,4-1[8:1]/8-5[8:1],
{1}4x/8x,
E

Re:MASTER

(166)
{1},

{1}2bx>7b[4:3]/7bx,
{4},1bx/8bx,{8},3bx/4bx,{4},
{1}5bx/6bxV82-4b[4:3],
{4},2bx/4bx,{8},5bx/7bx,{4},
{1}1bx>8b[4:3]/8bx,
{4},1bx/7bx,{8},2bx/4bx,{4},
{1}5bxV37-1b[4:3]/7bx,
{4},2bx/4bx,{8},1bx/8bx,{4},
{4}5bx/7bx,6,2bx/4bx,{8}3,3bx/4bx,
{8},5bx/6bx,,1bx/8bx,{4}2bx/7bx,35,

{2}5h[4:1]/7h[4:1],2h[4:1]/4h[4:1],
{2}1h[4:1]/8h[4:1],{4}45,36,

{4}2>5[4:1],5p8[4:1],7,{8}6,7,
{4}7-4[4:1],4V68[4:1],2,{8}3,2,
{4}2V46[4:1],6V82[4:1],2V46[4:1],6<2[4:1],
{4}2v4[4:1],5,5,{8}37,8,
{4}1-4[4:1]/2,2-5[4:1],,{8}6,7,
{4}8-5[4:1],5qq5[4:1],3,{8}2x,1,
{4}1<6[4:1],6>3[4:1],3,7p2[4:1],
{4}2q7[4:1],1,1,18,

{16}5h[8:1]/7h[8:1],,,4h[8:1]/5h[8:1],,,2/4q8[8:1],,{8},1,1,1,
{16}2h[8:1]/4h[8:1],,,4h[8:1]/5h[8:1],,,5h[8:1]/7h[8:1],,{8},8,8,7,
{4}6-3[8:1],1,2-7[8:1],5>6[8:3],
{2}1h[4:1],{8}3,3,{4}5,
{16}5h[8:1]/7h[8:1],,,1h[8:1]/8h[8:1],,,2/4q8[8:1],,{8},3,3,2,
{16}1h[8:1]/3h[8:1],,,4h[8:1]/5h[8:1],,,6h[8:1]/8h[8:1],,{8},5,5,4,
{4}3-8[8:1],{8}6,6,{4}7-4[8:1],{8}3,3>5[8:3],
{8},4,{4}4,B4/E4/E5,2b/6b,

{4}3q5[8:3]/5,{8},8,{4}8-4[8:1],8,
{4}3q5[8:3]/5,{8},8,{4}8-4[8:1],8,
{4}3q5[8:3]/5,{8},8,{4}8-4[8:1],8,
{4}3x/5x,35,{16}4,5,4,5,{4}36,
{4}3-1[8:1]/4,B6/E7,3-1[8:1]/4,B6/E7,
{4}3-1[8:1]/4,B6/E7,{8}34,2,{4}2x/8x,
{4}3b/7b,56,{16}4x/6x,,,5x/7x,,,5x/6x,,
{8},6,56,7,{4}57,35,
{8}35,B2/E2,B6/E7,1,{4}1,{8}24,24,
{8},5-1[8:1]/7,,8,{4}8,2>5[8:1]/6<1[8:1],

{4}2b/6b,4b/8b,12,{8}34,5,
{8}6,7-5[8:1],8-4[8:1],7,{4}8,35,
{4}1/2-4[8:1],1-5[8:1]/2,1/4-8[8:1],{8}46,7h[4:1],
{8},8,{4}1-5[8:1],1w5[8:1],1b,
{4}3-5[8:1]/7,3/6-2[8:1],1-7[8:1]/6,{8}5,5pp1[4:1],
{8},3,{4}3,8h[4:1],1-6b[8:1],
{4}1/7q3b[8:1],4-1b[8:1]/7,4/6-3b[8:1],{8}2,1-5b[8:1],
{8},15,,37,{4}3/7h[4:1],5h[4:1],

{4}E5,{8}34,2,{4}15,3<6[8:1],
{4}37,8qq8[4:1]*pp1[4:1],{2},
{4}35,2h[8:1]/6h[8:1],{8}3/5>2[8:1],4,5<8[8:1]/7,6,
{8}3/5-1[8:1],4,5pp6[4:1]/7,6,{2}3/5qq4[4:1],
{4}7x,{8}2-6b[8:1],8-4b[8:1],2,8,{4}1-5b[8:1],
{4}15,{8}6,{16}6,5,{8}7,2,35,26,
{4}1-4[8:1]/7-4[8:1],17,{8}3-8[8:1],5-8[8:1],3,5,
{8},1>6[4:1],,8b,(150){4}8b,1x/8x,

{4}3b/6b,{12}4,4,4,{4}35,{12}6,6,6,
{4}57,{12}3,3,3,{4}2b/4b,1b/8b,
{4}4b/7b,{12}5,5,5,{4}46,{12}3,3,3,
{4}24,{12}6,6,6,{4}5b/7b,1b/8b,
{4}2b/5b,{12}3,3,4,{4}24,{12}6,6,5,
{4}57,{12}2,2,1,{4}1b/3b,4b/5b,
{4}4b/7b,{12}6,6,5,{4}57,{12}3,3,4,
{4}24,{12}7,7,8,{4}6b/8b,4b/5b,

{4}3b/6b,{12}4,5,4,{4}35,{12}6,5,6,
{4}57,{12}3,4,3,{4}2b-5[8:1]/4b,6b-1[8:1],
{4}2b,{12}2,1,2,{4}13,{12}6,5,6,
{4}57,{12}3,4,3,{4}2b/4b-7[8:1],2b-5[8:1],
{4}8b,{12}6,5,6,{4}47,{12}3,4,3,
{4}25,{12}6,5,6,{4}4b/7bv4[8:1],3b-8[8:1],
{4}6b,{12}7,8,7,{4}16,{12}4,5,4,
{1}3qq4b[2:1]/6pp5b[2:1],

(158)
{12}3x,2x,1x,8x,7x,6x,{2}4hx[4:1]/5hx[4:1],

{1}3<6[4:5],
{2}E5,C,
{1}7<4[4:5],
{2}E6,C,
{1}2>6[4:5],
{2}C,B8,
{1}7<2[4:5],
{2}C,{4}E1,{8},1x-4[8:3],

{2},(166),

{4}35,35,36,36,
{4}37,38,12,34,
{4}46,46,57,{8}48,2b/6b,
{8},4,{4}4-8b[8:1],4bw8b[8:1],{48}4b,Cf,{24},{6},

{4}2x-6[8:1],1-5[8:1]/2,1/8-4[8:1],{8}7,7-4[8:1],
{8},4V61[4:1],{4}3-8[8:1],,{8}1x/8x,26,
{4}34,56,{8}57,8,24,1>4[8:1]*<6[8:1],
{8},1,,5x,{2}5xv2[8:1]*v8[8:1],

{4}3b/7b,{8}2-4[8:1],1-5[8:1],2-6[8:1],1-7[8:1],2>6[4:1],1,
{4}2,{8}8x,8x,57,4,35,2,
{4}1-5[8:1]/6,{8}1/7-1[8:1],6,3-5[8:1]/7,2,3/6-2[8:1],7,
{8}4-1[8:1]/6,5,4/7-3[8:1],6,1x-5[8:1]/7,8,{4}1/4>1[8:1]*<7[8:1],
{4}4b,{8}8x,8x,37,2,1/8-4[8:1],7,
{4}18,{8}35,{16}3,4,{8}2,2,6,17,
{8}6/8-4[8:1],7-3[8:1],8,7,2-6b[8:1],1-5b[8:1],2,1,
{8},47,,26,{2}2h[4:1]/6h[4:1],

{4}35,{8}3,4,{4}34,{8}3,5,
{4}35,{8}3,4,5,5,4,5,
{4}46,{8}6,5,{4}56,{8}45,4>1[8:1]/5<8[8:1],
{2},1h[4:1]/8h[4:1],
{1}A1/A2/A7/A8/B1/B2/B3/B4/B5/B6/B7/B8/D2/D8/E1/E2/E3/E5/E7/E8/Cf,
E

  • BPMは推定です -- でびゅー (2026-01-24 23:04:33)
名前:
コメント:

タグ:

+ タグ編集
  • タグ:
最終更新:2026年01月28日 21:04