アットウィキロゴ

Endless World

アーティスト RYOHEI KOHNO/保立美和子

BPM EASY BASIC ADVANCED EXPERT MASTER Re:MASTER
142 2 5 7+ 11 13 13

EXPERT MASTER Re:MASTER
譜面制作者 はっぴー ニャイン Jack

EASY


BASIC


ADVANCED


EXPERT


MASTER

(142){1},,,,{8}
3-8[4:1],,,,,,,8,
,8,,7,7h[2:1],,,,
1h[2:1],,,,2h[8:3],,,3,
,3,,4,4h[2:1],,,,
2h[4:3],,8,,6,,4,4,
,6h[8:3],,8,8h[2:1],,,,
7^4[4:1],,1,,7,,3h[4:1],,
{2}1b,,

7-3[4:1],4-8[4:1],
1-5[4:1],{8}1,8,7,6,
{2}5-2[4:1],1-6[4:1],
7^4[4:1],8^5[4:1],
2-5[4:1],7-3[4:1],
4-8[4:1],{8}7,8,1,2,
{2}3-8[4:1],5-1[4:1],
{8}2-5[4:1],2,,,8-4[4:1],8,1b,,

{16}
2,,3,4,,4,3,,1,,8,7,,7,8,,
2,,3,4,,4,5,,7,,6,5,,5,4,,
5,,6,7,,7,6,,4,,3,2,,2,3,,
4,,5,6,,6,7,,5,,4,3,,3,2,,
1-5[8:1],,,1,,,,,5-2[8:1],,,5,,,,,
2-7[8:1],,,2,,,,,7-3[8:1],,,7,,,,,
{4}3-8[8:1],8^5[4:1],5^2[4:1],2^5[4:1],
5^8[4:1],8^3[4:1],3^6[4:1],,

{16}
1-4[4:1],,,1,,,1,,1-5[4:1],,,1,,,1,,
6-2[4:1],,,6,,,6,,6-1[4:1],,,6,,,{8}6,
5h[4:1],,3,1^4[8:3]/6^1[8:3],,,,,
,,,,,,4-8[4:1],,
,,,,8,7,6,4h[2:1],
,,2,2h[8:5],,,,4,
4h[8:3],,6,6h[2:1],,7,,1h[8:3],
,,,,1b,,18,78,

6-2[16:1],,7,8,1-6[16:1],,8,7,
6-2[16:1],,3,3,4-8[16:1],,7,7,
6h[4:1],,4h[4:1],,2h[4:1],,8h[4:1],,
7-2[16:1],,3,3,4-1[16:1],,8,8,
{16}8h[16:3],,,7,,,8h[8:1],,2h[16:3],,,3,,,4h[8:1],,
2h[16:3],,,1,,,8h[8:1],,6h[16:3],,,5,,,4h[8:1],,
6^3[16:1],,,6,,,5,,6^1[16:1],,,6,,,{8}7,
6-2[16:1],,3-8[16:1],,,,8b,,

1h[4:1],,2,3,4h[4:1],,2,1,
2h[4:1],,6,5,7h[4:1],,1,3,
4h[4:1],,2,1,2h[4:1],,6,5,
7h[4:1],,1,3,4h[4:1],,2,1,
7-3[16:1]/8,,8,1,3-8[16:1]/2,,2,1,
8^3[16:1]/7,,6,7,8^5[16:1]/1,,2,1,
8h[4:1],,4,3,2^5[16:1],,1^6[4:1],2,
6^3[4:1],,,,1b,,,,

6-2[16:1],,7,8,1-6[16:1],,8,7,
6-2[16:1],,3,3,4-8[16:1],,7,7,
6h[4:1],,4h[4:1],,2h[4:1],,8h[4:1],,
7-2[16:1],,3,3,4-1[16:1],,8,8,
{16}8h[16:3],,,7,,,8h[8:1],,2h[16:3],,,3,,,4h[8:1],,
2h[16:3],,,1,,,8h[8:1],,6h[16:3],,,5,,,4h[8:1],,
6^3[16:1],,,6,,,5,,6^1[16:1],,,6,,,{8}7,
6-2[16:1],,3-8[16:1],,,,8b,,

{2}
2-6[16:1]/1h[4:1],6-3[16:1]/7h[4:1],
3-7[16:1]/4h[4:3],7-2[16:1],
2^5[16:1]/1h[4:1],5^2[16:1]/8h[4:1],
2-5[16:1]/7h[4:3],5-1[16:1],
{16}
3^8[16:1]/4,,,3,,,2,,2^5[16:1]/1,,,2,,,3,,
5-1[16:1]/6,,,5,,,4,,1^4[16:1]/8,,,1,,,2,,

{8}
8h[4:1],,7,6,5h[4:1],,7,,
1h[4:3]/2h[4:3],,,,,,,,
1-4[16:1]/5,,6,8,8-5[16:1]/4,,6,8,
{16}
3b/8b,,,5b/7b,,,2b/4b,,,,,,,,,,
{1},
E

Re:MASTER

(142){2}
2h[2:1],3h[2:1],4pp2[2:1],,
7h[2:1],6h[2:1],5h[2:1],4w8[8:1],
2b/6b,{8},,,34,,67,,1-6[8:1]/2-5[8:1],12,,,,
6h[4:3],,,,5h[4:1],,,56,,23,,7-4[8:1]/8-3[8:1],78,,,,
2qq7[8:5]/5,,5,,6,,6,,78,{16},12,{8},3/6qq3[8:5],,,,,
2h[4:3],,,,7h[4:1],,,27,,,,45,{16},4,5,,5,,4,,

2-5[8:1]/7b,,,7,,,7,,5-1[8:1]/6,,,6,,,6,,1-6[8:1]/7,,,7,,,7,,56,,2,,34,,7,,
5-1[8:1]/6,,,6,,,6,,1^4[8:1]/7,,,7,,,7,,4-8[8:1]/6,,,6,,,6,,78,,78,,16,,,,
2/7-4[8:1],,,2,,,2,,3/4-8[8:1],,,3,,,3,,2/8-3[8:1],,,2,,,2,,34,,7,,56,,2,,
3/4-8[8:1],,,3,,,3,,2/8^5[8:1],,,2,,,2,,3/5-1[8:1],,,3,,,3,,12,,2,1,3,8,4,7,
5b/6,,3,4,,2,3,,12,,6,5,,7,6,,78,,3,4,,6,5,,34,,8,,56,,1,,
34,,6,5,,7,6,,78,,3,4,,2,3,,12,,6,5,,3,4,,27,,8,1,,4,5,4,
5^8[8:1],,,5h[16:5],,,,,8-4[8:1],,,8h[16:5],,,,,4^1[8:1],,,4h[16:5],,,,,1-5[8:1],,,1h[16:5],{4},
5-8[8:1],5-2[8:1],1-6[8:1],1-4[8:1],5w1[8:1],,{8}37,6,5<4[4:3],4,

{4}3,4,5,6,7-3[8:1]/8-2[8:1],,2-6[8:1]/3-5[8:1],,
5h[4:1]/6h[4:1],{8},5qq2[8:7]/6pp1[8:7],{4},,,,,4-8[8:1],
2h[2:1],,{8}8,1,2,3h[8:3],,,5-1[8:1],3,7h[8:3],,,2,
2h[4:1],,4,4h[4:1],,6h[4:1],,8h[16:5],,{16},1,8,1,8,1,{8}2b/7b,,12,18,

7/8h[4:1],,7^4[8:1],8,1h[4:1]/7,,8^5[8:1],1,2h[4:1]/8,,1^6[8:1],2,{4}1/3h[4:1],4-1[8:1],
2-7[8:1]/4,2/8-5[8:1],6-3[8:1]/8,4p1[8:3]/6,4/8h[2:1],,,{16}56,,45,,
3/4-8[8:1],,,3,,,3,,2/8^5[8:1],,,2,,,2,,3/5-1[8:1],,,3,{8},3,1h[4:1]/2,,2^5[8:1],1,
2/8h[4:1],,1^4[8:1],8,1/7h[4:1],,8>7[8:3],7,6h[2:1]/8,,,,1w5[8:1],,,,

{2}3b/7b,,4h[4:3]/6h[4:3],,
5,4,3h[4:3]/5h[4:3],{8},,,{24}4,5,3,
{8}4,,6,5,6,,3,4,3,,7,8,16,,2,1,
3/8h[4:1],,4,3,2^5[8:1],,1^6[4:1],2,6^3[4:1],,,,1b,,56,45,

3/4h[4:1],,3^8[8:1],4,3/5h[4:1],,4^1[8:1],5,4/6h[4:1],,5^2[8:1],6,{4}5/7h[4:1],8-5[8:1],
6-3[8:1]/8,4-1[8:1]/6,2-7[8:1]/4,2/8p5[8:3],4h[2:1]/8,,,{8}12,18,
7/8-4[8:1],{16},7,,,7,,4^1[8:1]/6,,,6,,,6,,1-5[8:1]/7,,,7,{8},7,5h[4:1]/6,,6^1[8:1],5,
4h[4:1]/6,,5^8[8:1],4,3h[4:1]/5,,4^7[8:1],3,2h[4:1]/4,,{16}1,2,,38,,47,,56,,1,{8}1,
2b-6[8:1]/8h[4:1],,,,6-2[8:1]/7h[4:1],,,7,1-7[8:1],6,,5,5-3[8:1],,1b,,
2h[4:1]/7-3[8:1],,,,1h[4:1]/3-7[8:1],,,1,5-1[8:1],2,,3,3b/7b,,6^1[8:1],5,
5,,3^8[8:1],,4,,6<3[4:1],5,5,4,,18,1b/8b,,1-5[8:1],28,
1,,8-4[8:1],17,8,,1q5[8:1]/7-2[8:1],,7b,,{16}6,5,7,4,8,3,1,2,8,1,8,,
5-1[8:1]/6b,,,,6,,7,,1b/8-4[8:1],,,,1,,2,,3b/4,,,5/6b,,,1b/8b,,{1},,E

名前:
コメント:

タグ:

+ タグ編集
  • タグ:
最終更新:2026年10月31日 20:38