アットウィキロゴ

はいよろこんで

アーティスト こっちのけんと

BPM BASIC ADVANCED EXPERT MASTER Re:MASTER
147 3 6 9+ 11+ 13

EXPERT MASTER Re:MASTER
譜面制作者 鳩ホルダー 緑川 犬三郎 Jack

BASIC


ADVANCED


EXPERT

(147)
{1},
{1},
{1},
{8}6h[8:3],,,5h[8:3],,,4h[8:3],,
{8},3h[8:3],,,{4}4,4,

{1}3<6[2:1],
{2},56,
{1}6>3[2:1],
{2},34,
{1}2>5[2:1],
{4},6,{2}56,
{1}7<4[2:1],
{4},45,{2}36,

{4}3,2,{8}8,8,{4}17,
{4}6,7,{8}1,1,{4}28,
{8}2,2,{4}12,{8}7,7,{4}78,
{4}17,6v8[4:1]/2v4[4:1],{2},
{4}3b/7b,{8}2,2,{4}1,28,
{8}7,7,{4}8,17,26,
{8}3,3,{4}1,{8}6,6,{4}8,
{8}2,2,{4}1,{2}1-4[8:1]/8-5[8:1],

{2}6h[1:1],E6,
{2}3h[1:1],E4,
{4}E7,E6,E3,E4,
{4}A6/B6,A3/B3,{2}C,
{2}2h[1:1],E4,
{2}7h[1:1],E6,
{4}4,56,3x/4,2/6hx[4:5],
{8}1,1,1,8x,8x,8x,1,1,

{4}1b,7-5[8:1]/8-4[8:1],,3,
{4}1-5[8:1]/2-4[8:1],,{8}8,8,{4}17,
{4}2,1-5[8:1]/2-4[8:1],,6,
{8}78,78,,12,{4}12,3b/8b,
{4}12,1-5[8:1]/2-4[8:1],,6,
{4}7-5[8:1]/8-4[8:1],,{8}1,1,{4}28,
{4}7,7-5[8:1]/8-4[8:1],,3,
{8}28,28,,17,{4}17,2b/6b,

{8}7,8,{4}16,{8}2,1,{4}3h[1:1]/8,
{2}7-5[8:1],2-4[8:1],
{8}6,5,{4}47,{8}3,4,{4}2/5h[4:3],
{2}2V48[4:1],{4},17,
{8}6,8,{4}17,{8}3,1,{4}28,
{2}1v4[8:1]/7<4[8:1],2>5[8:1]/8v5[8:1],
{4}46,12,3x/5,1/6hx[4:5],
{8}8,8,8,7x,7x,7x,8,8,

{4}8b,78,6,57,
{4}4,34,{8}2,2,{4}1,
{4}2b/8b,3,34,5,
{4}46,7v6-4[2:1],{2},
{4}3,34,2,13,
{4}8,78,{8}6,6,{4}5,
{4}4b/6b,7,18,2h[4:1],
{4}4h[4:1],5h[4:1],6,2b>1qq5[2:3]/8b,

{1},
{2},{4},7xp4>5[2:3],
{1},
{2},{4},34,
{2}2>4[4:1],7<5[4:1],
{1}3V15[2:1]*v5[2:1],
{2}6h[2:1],7h[2:1],
{2}8-4[4:1],{4},35,

{4}5,6h[4:3],{2}E6,
{4}4,3h[4:3],{2}E4,
{4}E7,E6,E3,E4,
{4}A6/B6,A3/B3,{2}E5,
{4}3,2h[4:3],{2}E4,
{4}6,7h[4:3],{2}E6,
{4}2h[4:1],4h[4:1],3hx[4:1],6hx[4:1],
{4}5h[4:1],7h[4:1],1h[4:1],8h[4:1],
{8}1,1,7,7,2,2,{4}8,
{1}1h[1:1]/8,
{8}8,7,6,5x,4x,3x,2,1,

{4}8b,7-4[8:1]/1-4[8:1],,3,
{4}8-5[8:1]/2-5[8:1],,{8}7,7,{4}68,
{4}1,8-5[8:1]/2-5[8:1],,6,
{8}17,17,,28,{4}28,3b/7b,
{4}28,8-5[8:1]/2-5[8:1],,6,
{4}7-4[8:1]/1-4[8:1],,{8}2,2,{4}13,
{4}8,7-4[8:1]/1-4[8:1],,2,
{8}13,13,,68,{4}68,1b/5b,

{8}7,8,{4}16,{8}2,1,{4}3h[1:1]/8,
{2}7-4[8:1],2-5[8:1],
{8}6,5,{4}47,{8}3,4,{4}2/5h[4:3],
{2}1-4-7[4:1],{4},68,
{8}6,8,{4}17,{8}3,1,{4}28,
{2}1>4[8:1]/7v4[8:1],2v5[8:1]/8<5[8:1],
{4}46,12,3x/4,6x/8,
{8}1,2,3,4x,5x,6x,7,8,

{4}1b,{8}3,4,{4}2,18,
{8}7,5,{4}6,47,25,
{2}3/4-8[8:1],5-1[8:1]/7,
{4}2h[4:1],4h[4:1],6h[4:1],8h[4:1],
{4}1,{8}7,8,{4}6,15,
{8}2,4,{4}3,45,3b/7b,
{4}12,67,3x/4,1/6x,
{8}A8,A7,A6,A5f,A4f,A3f,(115)A2,A1,
{1}Ch[4:1],
E

MASTER

(147)
{1},,
{8}2h[16:3]/8h[16:3],,,1h[16:3]/7h[16:3],,,3h[16:3]/8h[16:3],,,16,1-5[8:1]/6,,8x-4[8:1],,3x,,

{4}2h[4:5],,4,4,,E4,E5,E6,7h[4:5],,5,5,,E6,E5,E4,

{4}2,2h[4:3],4,4,E3,E4,E5,E6,7,7h[4:3],5,5,6,6-3[4:1]/7-2[4:1],,,

{8}2,2,1,,3-6[8:1]/8h[4:1],,,,7,7,8,,1-5[8:1]/6h[4:1],,,,

7,7,1,1,4,4,2,2,8,8,5,5,7,7,46,,35,,1^4[8:1]/8q4[8:1],,,,2,2,4,4,3,3,25,,

{4}4/7-4[12:1],3-8[12:1],6-3[12:1],2-5[12:1],7,8,8^3[8:1]*^5[8:1],,2x/6x,

18,1^6[4:1]/2v5[4:1],,,4bxh[4:3]/6bxh[4:3],,,,3h[8:1]/5h[8:1],4h[8:1]/6h[8:1],3h[8:1]/5h[8:1],4h[8:1]/6h[8:1],3b/7b,2b-7[4:1]b/6b-3[4:1]b,,,

18,1^6[4:1]/2v5[4:1],,,4bxh[4:1]/6bxh[4:1],,{8}3bx/7bx,3bx/7bx,,2,2,5,5,3,3,46,46,,
5,5,5,4h[16:1],4h[16:1],4h[16:1],5,5,

{4}5b,3-8[8:1]/4-8[8:1],,56,3-8[8:1]/4-8[8:1],,7-5[8:1]/8-4[8:1],7x/8x,

4x/5x,3-8[8:1]/4-8[8:1],,56,3-8[8:1]/4-8[8:1],,{8}1,1,{4}2b/8b,

46,3-8[8:1]/4-8[8:1],,56,3-8[8:1]/4-8[8:1],,7-5[8:1]/8-4[8:1],7x/8x,

4x/5x,3-8[8:1]/4-8[8:1],,56,{8}34,34,,56,56,,Cf/B4/B7,,

{8}2x,2x,8,1,7,7,1,,3h[8:1]/5h[8:1],,1h[8:1]/7h[8:1],,3h[8:1]/5h[8:1],,1h[8:1]/7h[8:1],,

2,2,8,1,7,7,1,,1-4[8:1]/7-4[8:1],,,,1v4[8:1]/7v4[8:1],,,,

6,6,4,5,3,3,5,,7h[8:1]/1h[8:1],,5h[8:1]/3h[8:1],,7h[8:1]/1h[8:1],,8b-4[8:1]/3b,,

2,2,5,5,3x,3,6x,6,1,1,1,8h[16:1],8h[16:1],8h[16:1],1,1,

1b,,7^4[8:1],,3^8[8:1],,6,,2,2,4,3,7,7,1-4[8:1]/8-5[8:1],,1x/8x,,3^8[8:1],,7^4[8:1],,2,,6,6,1,8,3,3,4,,

5-8[8:1],,2^5[8:1],,6^1[8:1],,3,,7,7,5,6,2,2,8-5[8:1]/1-4[8:1],,8x/1x,,6^1[8:1],,2^5[8:1],,7,,3,3,5,4,6,,37,,

{4}1>7[4:5]/8h[4:1],,8h[4:1],,8h[4:1],,8h[4:1],,8<2[4:5]/1h[4:1],,1h[4:1],,1h[4:1],,1h[4:1],,

18,7,4-1[8:1]/6-1[8:1],,3-7[8:1],{8}8,8h[4:1],,1,{4}1>5[4:1],5<1[4:1],1V35[4:1],5V71[4:1],1>5[4:1],5<1[4:1],1,5,37,

18,1^6[4:1]/2p5[4:1],,,4bxh[4:3]/6bxh[4:3],,,,2h[8:1]/5h[8:1],4h[8:1]/7h[8:1],3h[8:1]/5h[8:1],4h[8:1]/6h[8:1],3b/7b,2b^5[4:1]b/6b^1[4:1]b,,,

18,1^6[4:1]/2p5[4:1],,,4bxh[4:1]/6bxh[4:1],,{8}3bx/7bx,3bx/7bx,,2,2,5,5,3,3x,46,{4}4/6x,

7-3[8:1],1-5[8:1],8-4[8:1],2-6[8:1],7-3[8:1],1-5[8:1],8-4[8:1],2-7-3-6[4:3],,,,,{8}8x,8x,8x,1bh[16:1],1bh[16:1],1bh[16:1],8b,8b,

{4}8b,7-4[8:1]/8-4[8:1],7x/8x,6,7-4[8:1]/8-4[8:1],7x/8x,{8}3,2,17,,{4}28,7-4[8:1]/8-4[8:1],7x/8x,6,7-4[8:1]/8-4[8:1],7x/8x,{8}1,1,{4}2b/8b,

28,7-4[8:1]/8-4[8:1],7x/8x,6,7-4[8:1]/8-4[8:1],7x/8x,{8}3,2,17,,{4}28,7-4[8:1]/8-4[8:1],7x/8x,2h[4:1],{8}4,4,,57,57,,Cf/B4/B6,,

2x,2x,8,1,6,6,4,4,3h[8:1]/5h[8:1],,1h[8:1]/7h[8:1],,3h[8:1]/5h[8:1],,1h[8:1]/7h[8:1],,3,3,4,1,6,6,5,8,1-4[8:1]/7-4[8:1],,,,1v4[8:1]/7v4[8:1],,,,

6,6,4,7,3,3,5,2,7h[8:1]/1h[8:1],,5h[8:1]/3h[8:1],,7h[8:1]/1h[8:1],,8b-4[8:1]/3b,,2,2,5,5,3x,3,6x,6,1,1,1,8h[16:1],8h[16:1],8h[16:1],1,1,

{4}1b,24,45,7-4[12:1],3-8[12:1],6-1[12:1],2-5[12:1],8,

8h[1:1],5,5,3,1h[4:3],4,4,6,78,75,54,2-5[12:1],6-1[12:1],3-8[12:1],7-4[12:1],1b,{8}2,2,6,6,4,4,7,7,

5x,4x,3x,2xh[16:1],1xh[16:1],8xh[16:1],(115)7x,6x,5x<1[8:1]/3hx[4:1],,

Re:MASTER

(147)
{1},
{1},
{1},
{16}3h[16:3],,,4,,,6h[16:3],,,5,,,4h[16:3],,,5pp4[16:11],
{1},

{8}2/4h[8:3],,,5h[8:3],,,{4}6h[1:1],
{4},D3,E4,D5,
{8}5h[8:3]/7,,,4h[8:3],,,{4}3h[1:1],
{4},D7,E6,D5,
{4}2h[4:1]/4,{8}4,3,{4}4,2/4h[1:1],
{4}5,3,5,2,
{4}5/7h[4:1],{8}5,6,5,7,{4}5h[4:1],
{4}4-8[8:1],2>5[8:1],1,3b/7b,

{8}34,{16}6,5,{8}6,3,2-6[8:1],1,2,8x,
{8}57,{16}4,5,4,5,{8}3,2>5[8:1],1,2,6x,
{8}7,7x/8x,1x/8x,12,3h[4:1],4,6h[4:1],5,
{8}2h[4:1],3,7h[4:1],6,2-5[8:1],1,7-4[8:1],8,
{4}1b>4[8:1],{8}4,5,{2}6-3[8:1]/7-2[8:1],
{8}14,8x,14,7x,14,6x,14,5x/6,
{8},1h[4:1]/2,3,4,15,8>3[8:1],7,6,
{8},7/8h[4:1],6,5,48,1<6[8:1],2,3,

{4}4h[4:1],{8},35,,3,,5,
{4}5h[4:1],{8},46,,6,,4,
{4}4-2[8:1],5-7[8:1],{8}1,1,{4}28,
{4}1q6[8:1]/7,8p3[8:1],2,18,
{4}5-3[8:1]/6x,{8}5,7x-5[8:1],,7,{4}8x,
{4}3x/4-6[8:1],{8}4,2x-4[8:1],,2,{4}1x,
{8}56,7,18,2,3<6[8:1],6,{4}3x,
{8}A7,B8,E2,6h[8:1],2h[8:1],6h[8:1],E6,B4,

{8}8b/A3,6x,4xw8[8:1],2x,{4}4x,{8}8x,2x,
{8}4xw8[8:1],6x,{4}4x,{8}26,35,{4}1b/7b,
{8}8x,6x,4xw8[8:1],2x,{4}4x,{8}26,3/4-8[8:1],
{8},2x-5[8:1]/4,,1x/2,8b,8b,{4}2b/6b,
{8}1x/7x,2,3-8[8:1]/4-7[8:1],5,{4}3x/4x,{8}16,5,
{8}3-8[8:1]/4-7[8:1],2,{4}3x/4x,{8}15,26,{4}3b/7b,
{8}5x/6x,8,3-8[8:1]/4-7[8:1],1,{4}3x/4x,{8}26,3/5-1[8:1],
{8},5/7x-4[8:1],,7/8x,1b,1b,{4}3b/7b,

{16}2,1,{8}2,{16}3,4,{8}3,{16}2,1,2,1,{8}2,38,
{8}7h[8:1],5h[8:1],6,{16}7,5,6,5,6,5,{8}6,48,
{16}3,4,{8}3,{16}1,8,1,8,2,1,2,1,{8}3,48,
{2}7-5[8:1]/5-1[8:1],{16}8x,7,{8}6,{16}8x,7,{8}6,
{8}34,{16}2,1,{8}2,{16}7,8,{8}7,16,25,34,
{4}7<2[4:1],2>7[4:1],7,2x,
{16}7,8,{8}7,{16}2,1,{8}2,3x/4,{16}7,5,6x,4,5,3,
{8}A6,B5,E4,6h[8:1],2h[8:1],6h[8:1],E8,B1,

{4}A2,45,{8}3h[8:3],4,5,6,
{4}37,2>5[8:1]/6,2x/7-3[8:1],1w5[8:1]/7x,
{4}1b,37,{8}6h[2:1],5,4,3,
{8}2h[2:1],3,4,5,6,37,{4}37,
{8}45,{16}3,4,{8}3,2h[8:1],4h[8:1],5h[8:1],7h[8:1],8,
{8}7h[8:1],5h[8:1],4h[8:1],2h[8:1],1,2,{4}3h[8:1]/8h[8:1],
{8}5b/6b,{16}7,8,{8}7,1,28,3/7-4[8:1],,1,
{8}1h[4:3],3,3,3,3,3,{4}3>5[8:13],

{2}4h[4:1],4h[4:1],
{2}4h[4:1],{4}4h[4:1],6<4[8:13],
{2}5h[4:1],5h[4:1],
{2}5h[4:1],{4}5,5,
{4}6h[4:1],5h[4:1],4h[4:1],3h[4:1],
{4}2-6[8:1],8-5[8:1]*-3[8:1],,4,
{4}8<6[4:1],6>3[4:1],3>8[4:1],8<5[4:1],
{4}5>2[4:1],2,7,18,

{16}57,,,57,,,{8}57,{4}5-3[8:1],6,
{4}7-5[8:1],8,1-7[8:1],2,
{16}24,,,24,,,{8}24,{4}4-8[8:1],3,
{4}1q6[8:1],8p3[8:1],1,8,
{16}17,,,17,,,{8}2/6>3[8:1],{2}2/6h[4:1],
{16}28,,,28,,,{8}3<6[8:1]/7,{2}3h[4:1]/7,
{4}1-4[8:1]/7,8-5[8:1],3-6b[8:1],7-2[8:1],
{8}1>4[8:1],1,6<1[8:1],6,3<6[8:1],3,8,8,
{4}1h[8:1]/7h[8:1],2h[8:1]/4h[8:1],5h[8:1]/6h[8:1],3h[8:1]/7h[8:1],
{16}2,8,3,7,4,6,5,7h[8:1],,5,5,6,3,4,{8}1x,
{8}A7f,B8f,E2f,6bh[8:1],2bh[8:1],6bh[8:1],E6f,B4f,

{8}8x-4[8:1]/A3f,2v5[8:1],8>3[8:1],2,{4}8b,{8}1-5[8:1],7v4[8:1],
{8}1<6[8:1],7,{4}1b,{8}4-8[8:1]/7-5[8:1],8,{4}4x/7x,
{8}2-4[8:1],6-8[8:1],2-6[8:1],6,{4}2b,{8}78,1>4[8:1]/5<8[8:1],
{8},15,,15,48,1x/5x,{4}3b/7b,
{8}2/6-4[8:1],48,26,8,{4}2b/6b,{8}2-8[8:1]/6,48,
{8}26,4,{4}2b/6b,{8}2-4[8:1]/5-1[8:1],1,{4}2x/5x,
{8}3<6[8:1]/7,15,37,1,{4}3bx/7bx,{8}12,4>1[8:1]/8<5[8:1],
{8},48,,48,15,4x/8x,{4}2b/6b,

{16}3,4,{8}2,{16}7,8,{8}7,{16}2,6,2,6,{8}4,35,
{8}78,56,34,{16}2,4,3,5,4,6,{8}5,1x/7x,
{16}3,4,{8}2,{16}8,1,8,1,7,8,7,8,{8}6,15,
{4}4-8[8:1]/2-4[8:1],24,{16}1x,2,{8}3,{16}1x,2,{8}3,
{8}56,{16}7,8,{8}7,{16}2,1,{8}2,38,47,56,
{4}2V47[8:1],7V52[8:1],2,1x/8x,
{16}2,1,{8}2,{16}7,8,{8}7,3b/4,{16}7,5,6b,4,5,3,
{8}A6,B5,E4,6h[8:1],2h[8:1],6h[8:1],E8,B1,

{4}A2,{8}56,4,{2}3<6[8:1],
{8}7h[8:1],5x,6h[8:1],4x,5h[8:1],3x,4h[8:1],2x,
{8},2,3,4,5,3-8[8:1],4,4,
{8},7,6,5,4,6-1[8:1],5,5,
{4}4,{8}34,5,{2}6>3[8:1],
{8}2h[8:1],4x,3h[8:1],5x,4h[8:1],6x,5bh[8:1],7x,
{16}3,4,{8}2,{16}6,5,{8}7,3-6b[8:1],6-3[8:1],{4},
{8}A7,B8,E2,6h[8:1],2h[8:1],6h[8:1],(115)E6,B4,
{4}A3,C,
E

  • MASTER追加しました。 -- のん (2026-01-30 15:26:16)
名前:
コメント:

タグ:

+ タグ編集
  • タグ:
最終更新:2026年03月29日 13:06