BASIC
ADVANCED
EXPERT
(220)
{1},
{1}3h[1:1],
{2}4,34,
{1}2h[1:1],
{2}4,35,
{1}6h[1:1],
{2}5,56,
{2}7,7,
{2}78,2x/6x,
{4}7,7,{2}1,
{4}3,3,{2}1,
{4}7,7,5,5,
{4}4,4,{2}2,
{4}2,2,{2}8,
{4}6,6,{2}8,
{4}2,2,4,4,
{4}5,5,{2}7,
{4}6,6,{2}56,
{4}3,3,{2}34,
{4}3,4,5,6,
{4}7,8,{2}17,
{4}6,6,{2}57,
{4}3,3,{2}24,
{4}3,3,1,1,
{4}8,8,{2}17,
{1}2>5[4:3],
{2},56,
{1}7<4[4:3],
{2},34,
{1}2V46[4:3],
{2},57,
{2}6h[2:1],5h[2:1],
{2}4h[2:1],3,
{1}3V58[4:3]/5h[2:3],
{2},1,
{1}2h[2:3]/8V24[4:3],
{2},4,
{1}3>8[4:3],
{1}7<4[4:3],
{1}3h[1:1],
{2}8b,{4},12,
{2}1-5[4:1]/2-4[4:1],{4},78,
{2}7-5[4:1]/8-4[4:1],{4},12,
{2}1-5[4:1]/2-4[4:1],{4},78,
{2}78,26,
{2}3h[4:1]/4h[4:1],1h[4:1]/2h[4:1],
{2}7h[4:1]/8h[4:1],5b/6b,
{4}56,7,{2}28,
{4}2,2,1,1,
{2}8-4[4:1]/7-4[4:1],{4},12,
{2}2-5[4:1]/1-5[4:1],{4},78,
{2}8-4[4:1]/7-4[4:1],{4},12,
{2}12,37,
{2}5h[4:1]/6h[4:1],7h[4:1]/8h[4:1],
{2}1h[4:1]/2h[4:1],3b/4b,
{4}6,5,4,3,
{4}27,27,{2}2b/7b,
{1}1>6[4:5],
{1},
{1}8<3[4:5],
{1},
{1}2>5p8[4:5],
{1},
{1}7<4q1[4:5],
{1},
{4}2,2h[8:3],{8},1h[8:3],{4},
{2}2,38,
{4}6,6h[8:3],{8},5h[8:3],{4},
{2}7,48,
{4}7,7h[8:3],{8},8h[8:3],{4},
{2}6,35,
{4}1x/2x,{8},3x/8x,{4},7xpp5[1:2]/4xqq6[1:2],
{1},
{1},
{2},4x/7x,
{1}6h[2:3],
{2}5,4,
{1}3h[2:3],
{2}4,5,
{1}6h[1:1],
{2}5,45,
{4}24,24,{2}24,
{4}5bx/7b,5x/7,5x/7,56,
{2}5/6-1[4:1],{4},34,
{2}3-8[4:1]/4,{4},56,
{2}5/6-1[4:1],{4},34,
{2}34,25,
{2}2h[2:1],4h[2:1],
{2}5h[2:1],7,
{4}78,6,{2}35,
{4}4,4,6,6,
{2}6-1[4:1]/5-1[4:1],{4},34,
{2}4-8[4:1]/3-8[4:1],{4},56,
{2}6-1[4:1]/5-1[4:1],{4},34,
{2}34,25,
{2}3h[4:1]/4h[4:1],7h[4:1]/8h[4:1],
{2}5h[4:1]/6h[4:1],1b/2b,
{4}34,25,{2}16,
{4}7,7,8,8,
{2}2-6[4:1]/1-5[4:1],{4},78,
{2}8-4[4:1]/7-3[4:1],{4},12,
{2}1<6[4:1]/2>5[4:1],{4},78,
{2}78,16,
{2}7h[4:1]/8h[4:1],3h[4:1]/4h[4:1],
{2}5h[4:1]/6h[4:1],1b/3b,
{4}2,13,7,68,
{4}4,35,{2}2b/6b,
{1}3h[2:3]/7p4[4:5],
{1},
{1}2h[2:3]/5qq1[4:5],
{1},
{1}3pp6[4:5]/8h[2:3],
{1},
{4}7,7,{2}5,
{4}2,2,{2}4,
E
MASTER
(220)
{1},
{2}3h[2:1]/4,{12}4,,3h[3:1],{4},
{2}4,45,
{2}6h[2:1]/5,{12}5,,6h[3:1],{4},
{2}5,45,
{2}3h[2:1]/4,{12}4,,3h[3:1],{4},
{2}4,45,
{4}56,{12}34,,34,,,45,,,{24}3,4,
{4}3,B6,45,B3,
{12}7x,,7,8,,8,5,,5,4,,4,
{12}1,,1,2,,2,4,,4,3,,3,
{12}4,,4,5,,5,6,,6,7,,7,
{12}8,,8,1,,1,2,,2,3,,3,
{4}4<7[4:1],7p3[4:1],8,1,
{2}2-7-3[2:1]/8h[4:1],6h[2:1],
{4}4<7[4:1],7p3[4:1],2,1,
{4}2-6[8:1]/8,7-3[8:1],5,1,
{12}2x,,2,1,,1,4,,4,5,,5,
{12}8,,8,7,,7,5,,5,6,,6,
{12}5,,5,4,,4,3,,3,2,,2,
{12}1,,1,8,,8,7,,7,6,,6,
{4}5>2[4:1],2q6[4:1],1,8,
{2}1h[4:1]/7-2-6[2:1],3h[2:1],
{4}5>2[4:1],2q6[4:1],7,8,
{4}17,6V84[2:1]/2V84[2:1],{2},
{4},6h[1:3],,E6,
{4},E4,,C,
{4},E8,,E4,
{4},E6,,46,
{4}3h[4:7]/7,E8,,E4,
{4},E7,,E5,
{6}3,4,5,6,7,8,
{6}12,3,4,56,7,8,
{4}1,1/B5,1,1/B4,
{4}1,1/B3,1,1/B2,
{4}1,1/B8,1,1/B7,
{4}1,1/B6,1,1/B5,
{4}2,2/B4,2,2/B3,
{4}2,2/B1,2,2/B8,
{2}3h[2:1],1bxw5b[2:1],
{2},{4},{12}3,4,3,
{4}5,1x/7x,{12}28,,28,,,3,
{4}4,{12}56,,56,,,7,{4}8,
{4}1-5[8:1]/5,1/7-3[8:1],2-5[8:1]/7,2/6pp1[2:1],
{4}46,3,2,{12}3<6[6:1]/8,,1,
{4}1,{12}8>3[6:1],,6,{4}6,{12}5<8[6:1],,3,
{4}3,{12}2>5[6:1],,8,{4}8,B6,
{4}34,1{12}4,,4,2,,2,{4}3h[4:1],
{4}1b,2b/4,3b/5,4b/6,
{4}45,2x/8x,{12}17,,17,,,6,
{4}5,{12}34,,34,,,2,{4}1,
{4}4/8-4[8:1],2-6[8:1]/8,2/7-4[8:1],3qq8[2:1]/7,
{4}35,6,7,{12}1/6>3[6:1],,8,
{4}8,{12}1<6[6:1],,3,{4}3,{12}4>1[6:1],,6,
{4}6,{12}7<4[6:1],,1,{4}1,B3,
{12}6,,6,5,,5,4,,B2/B3/E3,,,8,
{4}1bx/7bx,5bx/6bx,{2}1b/3b,
{2}4h[2:7],1<5p2p6[4:11],
{1},
{1},
{1},
{2}5h[2:7],8>4q7[4:7],
{1},
{1},
{2}8,1,
{2}2h[1:1],B4/E4,
{2}7h[1:1],B5/E6,
{2}3h[1:1],D5/E5,
{2}6h[1:3],C,
{1}8v3[2:1],
{2}2,1,
{4}8x-2[6:1],{6},7x-3[6:1],,{4}6x>7b[4:3],
{1}8h[4:3],
{4}56,{12}24,,3/5h[3:1],,,6,6,,8,
{12}8,,16,16,,2,2,4,3,7,5,6,
{1}1b>4v6[2:3],
{2}6,7,
{1}8>3v5[4:5],
{4}5,4,{2}3,
{4}4h[1:1]/5,3,,3,
{4}5h[1:1],6,,6,
{4}2,{12}4,,4,2,,2,{4}3h[4:1],
{4}1b,2b/4,3b/5,4b/6,
{4}7-4[8:1]/5-8[8:1],5x/7x,{12}13,,13,,,4,
{4}4,{12}57,,57,,,8,{4}8,
{4}7h[4:1],6,5h[4:1],4,
{4}3h[4:1],2,12,{12}18,,7,
{4}7<4[6:1],{12}8,,8,{4}8v3[6:1],{12}1,,1,
{4}1<6[6:1],{12}2,,2,{4}2,B1,
{12}7,,7,5,,5,6,,B3/B4/E4,,,7,
{4}6bx/8bx,1bx/2bx,2b/7b,{12}3,,3,
{4}4/5-1[8:1],5x/6x,{12}7,,7,,,8,
{4}1,{12}24,,24,,,1,{4}8p3[4:1],
{4}3>8[4:1],8<5[4:1],5>2[4:1],2,
{4}8-5[8:1]*-3[8:1],8,24,{12}1/4<7[6:1],,2,
{4}2,{12}1>4[6:1],,7,{4}7,{12}6<1[6:1],,4,
{4}4,{12}3<6[6:1],,1,{4}1,{12}8,,7,
{4}7,{12}6,,45,,,24,{4}24,
{12}1,4,3,7,5,6,{4}1-5[8:1],{12}1x/5b,,4,
{4}4-8[8:1],3x/4x,{12}2,,1<5[8:1]/3,,,2,
{4}2,{12}48,,4/8>4[8:1],,,7,{4}7,
{12}15,,1<5[8:1]/5,,,2,{4}2,{12}48,,4/8>4[8:1],
{12},,5,{4}5,6,{12}5>2[6:1]/8,,7,
{4}7,{12}8<5[6:1],,2,{4}2,{12}3>8[6:1],,5,
{4}5,{12}6>3[6:1],,8,{4}8,E2,
{12}6,,6,5,,5,4,,B2/B3/E3,,,8,
{4}1bx/7bx,5bx>6[2:1]/6bx,{2}2b/5x,
{4}3h[4:5],E2,,C,
{4},E6,,7h[2:3],
{4},E8,,C,
{4},E4,,1h[2:3],
{4},E2,,C,
{4},E6,,7h[4:3],
{4}E1,C,{2}B4/B5/E5,
{4}78,18,12,
E
Re:MASTER
最終更新:2026年02月01日 16:59