BASIC
ADVANCED
EXPERT
(143)
{1},
{1},
{1},
{2},{4}8,1,
{2}2hx[4:7]/7x,{4}4,4,
{4}3,3-7[4:1],{2},
{4}7h[2:3],4,5,5,
{4}6,6,8,18,
{4}2h[1:2],5,4,3,
{4}1,1-5[4:1],{2},
{4}7h[2:1],4,{2}5<2[2:1],
{2},{4}3h[8:1]/4h[8:1],5h[8:1]/6h[8:1],
{4}3h[4:1],1,{8}1,2x/8x,{4}2x/8x,
{4}6h[4:1],8,{8}8,1x/7x,{4}1x/7x,
{4}2h[4:1],1,7h[4:1],8,
{2}7x-4[8:1]/8x-3[8:1],7x-4[8:1]/8x-3[8:1],
{4}6,5bx/7bx,,2bx/4bx,
{4},6bx/8bx,{16}1bx/8bx,,,1bx/8bx,,,{8}1bx/8bx,
{8}2,2,{4}4,{8}7,7,{4}5,
{4}78,56,34,12,
{4}8h[4:7],E2,,E3,
{4},E4,,E5,
{4}2h[4:7],E8,,E7,
{4},E6,,E5,
{4}1x/5x,15,{16}56,,,56,,,{8}56,
{4}4x/7x,47,{16}34,,,34,,,{8}34,
{8}2,2,2,2,8,8,8,8,
{8}1,1,3,3,5,5,7,7,
{2}Chf[2:1],1b,
{8}8x-4[8:1],8,{4}1-3[8:1],,8,
{8}7x-3[8:1],7,{4}8-2[8:1],,8,
{8}6x-4[8:1],6,{4}7-3[8:1],,8,
{4}24,57,45,2b/8b,
{8}1x-5[8:1],1,{4}8-6[8:1],,1,
{8}2x-6[8:1],2,{4}1-7[8:1],,1,
{8}3x-5[8:1],3,{4}2-6[8:1],,{8}1,1bx,
{8},3bx/8bx,,1bx/6bx,,4bx/8bx,,Chf[64:157],
(169)
{1},
{1},
{1},
{1},
{4}3x/4x,34,34,34,
{4}56,56,56,56,
{4}45,45,45,4>1[8:3]/5<8[8:3],
{2},{4},1b/8b,
{4}57,45,67,45,
{4}24,45,23,45,
{4}8h[4:1],1,27,36,
{4}7h[4:1],5,2h[4:1],4,
{4}37,26,38,38,
{4}26,37,16,16,
{4}28,17,45,45,
{4}6,7-4[4:1]/2-5[4:1],{2},
{1}3bh[1:1]/8bz4[4:3],
{1},
(143)
{1}3h[8:9],
{8},4h[8:7],{4},{2},
{1}5h[8:9],
{8},6h[8:5],{4},,E4,
{4}1x/5x,15,{16}56,,,56,,,{8}56,
{4}4x/7x,47,{16}34,,,34,,,{8}34,
{8}2,2,2,2,8,8,8,8,
{8}1,1,3,3,5,5,7,7,
{2}Ch[2:1],1b,
{8}7x<4[8:1],7,{4}8pp2[8:1],,1,
{8}6<1[8:1],6,{4}5qq3[8:1],,4,
{8}7<4[8:1],7,{4}8pp2[8:1],,1,
{4}38,16,45,2b/8b,
{8}2x>5[8:1],2,{4}1qq7[8:1],,8,
{8}3>8[8:1],3,{4}4pp6[8:1],,5,
{8}2>5[8:1],2,{4}1qq7[8:1],,{8}8,8bx,
{8},1bx/6bx,,4bx/7bx,,1bx/8bxw4b[4:1],{4},
{4},B3/B4/B5/B6/Cf,,{8}8,8h[4:1],
{8},2h[4:1],,4,{4}4,45,
{4}5x/6hx[2:1],7>3[4:1],{2},
{4}3hx[2:1]/4x,2<6[4:1],{2},
{4}45,B3/B4/B5/B6/Cf,,{8}1,1h[4:1],
{8},7h[4:1],,5,{4}5,45,
{4}3hx[4:3]/4x,2,8,{8}6,6bx,
{8},3bx/8bx,,1bx-5[8:1],{4},{8},3bx/8bx,
{8},1bx/6bx,,8bx-4[8:1],{4},{8},1bx/6bx,
{8},3bx/8bx,,1bx/5bx,,3bx/7bx,,1bh[8:27]/6b,
{2},{4},B4,
{4},B6,,B3,
{4},B5,,B2,
{4},B7,,B4/B5/E4/E6,
E
MASTER
(143)
{4}3h[8:15]/5h[8:1],5h[8:1],4h[8:1],4h[8:1],
{4}5h[8:1],5h[8:1],4h[8:1],5h[8:1],
{4}4h[8:1]/6h[2:3],4h[8:1],5h[8:1],5h[8:1],
{4}4h[8:1],4h[8:1],{2}5-1[8:1],
{4}2x/8x,{8}34,{16}2,4,{8}3h[8:1],{16}4,3,{4},
{16}3,4,{8}3,25,{16}3,4,{8},3-5[8:1],2,3,
{4},{16}6,5,6,5,{8}7,{16}7,5,,5,{8}6<8[8:1],
{4},B4/E5,{16}7,5,6,5,{8}7-4[8:1],3,
{4}7,{16}2,4,2,4,{8}3h[8:1],{16}4,3,{8},34,
{16}3,4,{8}3,25,{16}3,4h[16:3],{8},3,4qq5[4:1]/5,6,
{4},{8}7,{16}6,5,{8}6,{16}6q3[8:3],5,{4}7,
{2},{4}2h[8:1]/4h[8:1],2h[8:1]/4h[8:1],
{8}12,12,38,{16}2,1,{8}2,1bx/2bx,1bx/8bx,7x/8x,
{16}7,8,{8}7,{16}1,8,{8}1,7-4[8:1]*-3[8:1],68,{4},
{8}25,2pp6[8:3]/5,,6,7,8,{4}8,
{2}5-7[8:1]/8h[4:3],6-4[8:1],
{12}E4,E8,E3,E7,E2,E6,{4}Ch[4:1],{12}A5,A1,A6,
{12}A2,A7,A3,A8,A4,C,{4}1b,{8}8,8-4[8:1],
{8},4,3,2,1-3[8:1],1,4-8[8:1],4,
{8}2-6[8:1],2,{4}1w5[8:1],,3b/7b,
{4}E2/C,E3,E4,E5,
{4}E6/C,E7,E8,E1,
{4}E8/C,E7,E6,E5,
{4}E4/C,E3,E2,A1/A8/D1/E1,
{4}3h[8:1]/5h[8:1],3h[8:1]/5h[8:1],{16}3h[8:1]/5h[8:1],,,4h[8:1]/6h[8:1],,,{8}57,
{4}5h[8:1]/7h[8:1],5h[8:1]/7h[8:1],{16}5h[8:1]/7h[8:1],,,4h[8:1]/6h[8:1],,,{8}35,
{8}24,2,35,5,46,4,57,7,
{16}4,8,4,8,3,7,3,7,2-6[8:1],6,2,6,{4}2,
{2}57,1hx[16:3]/8hx[4:1],
{8}1b/2b-6[8:1],34,28,{16}7,7,,56,,3,{8}4,12,
{8}7-3[8:1]/8,56,17,{16}2,2,,34,,6,{8}5,78,
{8}1/8-4[8:1],12,78,{16}6,6,,35,,2,{8}1,37,
{8}3/7-1[8:1],15,3-8[8:1]/7-4[8:1],5,{4}37,2b/6b,
{8}7-3[8:1]/8,56,17,{16}2,2,,34,,6,{8}5,78,
{8}1/2-6[8:1],34,28,{16}7,7,,56,,3,{8}4,12,
{8}1-5[8:1]/8,78,12,{16}3,3,,46,,7,{8}5,4-2[8:1]/8-6[8:1],
{8},4-7[8:1]/8-3[8:1],,4>1[8:1]/8<5[8:1],,48,,2h[64:211]/6p4q6[256:347],
(169)
{1},
{1},
{1}7q1p7[2:3],
{1},
{4}18,18,67,67,
{4}45,45,23,23,
{8}1,1,28,28,{16}3,7,3,7,2,6,2,6,
{16}3,4,,2,1,,7,8,,6,5,,{4}2b/8b,
{8}5x/7hx[8:1],4,3h[8:1]/5,6,7-3[8:1]/5-1[8:1],8,{4}57,
{8}2hx[8:1]/4x,5,4/6h[8:1],3,4-8[8:1]/2-6[8:1],1,{4}24,
{8}5x/7x,6,{4}5<3[4:1]/3>5[4:1],{2},
{16}5,6,7,8,5,4,3,2,{8}8,8,{4}26,
{8}4/7-4[8:1],8,3-6[8:1],2,7,7,{4}48,
{8}2-5[8:1]/5,1,6-3[8:1],7,2,2,{4}15,
{8}28,17,2>4[8:1]/8<6[8:1],17,{4}8v5[8:1]/2v5[8:1],2x/8x,
{8}5hx[8:1]/6x,8,3/4h[8:1],1,{4}4-2[8:1]/5-7[8:1],5pp8qq5[4:5]/4qq1pp4[4:5],
{1},
{1},
(143)
{4}2h[2:3],{8},4,{2}4h[8:1],
{8},3,,4h[4:1],{2},
{4}7h[2:3],{8},5,{2}5h[8:1],
{8},6,,5h[4:1],{2},
{4}3h[8:1]/5h[8:1],3h[8:1]/5h[8:1],{16}3h[8:1]/5h[8:1],,,2h[8:1]/4h[8:1],,,{8}15,
{4}6h[8:1]/8h[8:1],6h[8:1]/8h[8:1],{16}6h[8:1]/8h[8:1],,,1h[8:1]/7h[8:1],,,{8}26,
{8}35,2,46,7,35,1,46,8,
{16}2,1,2,1,3,8,3,8,4-8[8:1],7,4,7,{4}4,
{2}16,{16}2,4,,7,{4}5,
{8}5b/6b-1[8:1],78,46,{16}3,3,,12,,7,{8}8,56,
{8}3-8[8:1]/4,12,35,{16}6,6,,78,,2,{8}1,34,
{8}4-8[8:1]/5,56,34,{16}2,2,,17,,6,{8}5,37,
{8}3/7-1[8:1],15,3-8[8:1]/7-4[8:1],5,{4}37,2b/6b,
{8}3-8[8:1]/4,12,35,{16}6,6,,78,,2,{8}1,34,
{8}5/6-1[8:1],78,46,{16}3,3,,12,,7,{8}8,56,
{8}4/5-1[8:1],34,56,{16}7,7,,28,,3,{8}4,1-5[8:1]/5,
{8},1/7-3[8:1],,2-6[8:1]/7,,28,,57,
{4}5w1[8:1]/7,5b,37,{8}46,5,
{8}24,1h[8:3],,5,5,37,{4},
{8}56,7,34,2,78,56,34,1/2>5[8:1],
{8}8-4[8:1],2-6[8:1],8<5[8:1],2,{4}8,14,
{4}6-1[8:1]/3-8[8:1],3b/6b,{8},12,12,38,
{8},2/6h[4:1],,5,6,38,{4},
{8}17,2,34,5,46,7<4[8:1],18,2<7[8:1]/7,
{8},2/5>2[8:1],,5/8-4[8:1],,2-6[8:1]/8,,1-5[8:1]/2,
{8},1/8-4[8:1],,7-3[8:1]/8,,4>1[8:1]/7,,5<7[8:1]/4-7[8:1],
{8},5-2[8:1]/4>2[8:1],,5-1[8:1]/4-8[8:1],,45,,A2/A3/A6/A7/B2/B3/B6/B7/Cf,
{1},
{4}3h[8:1]/5,2h[8:1]/B4/E5,3h[8:1]/5,2h[8:1]/B5/E5,
{4}4/6h[8:1],7h[8:1]/B5/E5,4/6h[8:1],7h[8:1]/B5/E5,
{4}4/6h[8:1],7h[8:1]/B4/E5,{8}35,5-8b[8:1]/3-6b[8:1],{4},
E
Re:MASTER
最終更新:2026年02月08日 16:05